<?xml version="1.0" standalone="no"?>
<!DOCTYPE svg PUBLIC "-//W3C//DTD SVG 1.1//EN" "http://www.w3.org/Graphics/SVG/1.1/DTD/svg11.dtd" >
<svg xmlns="http://www.w3.org/2000/svg">
<metadata>
This is a custom SVG webfont generated by Font Squirrel.
Copyright   : C GiorgioCat
</metadata>
<defs>
<font id="GraphicPixelRegular" horiz-adv-x="1228" >
<font-face units-per-em="2048" ascent="1638" descent="-410" />
<missing-glyph horiz-adv-x="820" />
<glyph unicode=" "  horiz-adv-x="820" />
<glyph unicode="&#x09;" horiz-adv-x="820" />
<glyph unicode="&#xa0;" horiz-adv-x="820" />
<glyph unicode="!" horiz-adv-x="410" d="M0 0v200h200v-200h-200zM0 400v200h200v-200h-200zM0 600v200h200v-200h-200zM0 800v200h200v-200h-200zM0 1000v200h200v-200h-200zM0 1200v200h200v-200h-200z" />
<glyph unicode="&#x22;" horiz-adv-x="820" d="M0 1000v200h200v-200h-200zM0 1200v200h200v-200h-200zM400 1000v200h200v-200h-200zM400 1200v200h200v-200h-200z" />
<glyph unicode="#" d="M0 200v200h200v-200h-200zM0 800v200h200v-200h-200zM200 0v200h200v-200h-200zM200 200v200h200v-200h-200zM200 400v200h200v-200h-200zM200 600v200h200v-200h-200zM200 800v200h200v-200h-200zM200 1000v200h200v-200h-200zM400 200v200h200v-200h-200zM400 800v200 h200v-200h-200zM600 0v200h200v-200h-200zM600 200v200h200v-200h-200zM600 400v200h200v-200h-200zM600 600v200h200v-200h-200zM600 800v200h200v-200h-200zM600 1000v200h200v-200h-200zM800 200v200h200v-200h-200zM800 800v200h200v-200h-200z" />
<glyph unicode="$" d="M0 200v200h200v-200h-200zM0 800v200h200v-200h-200zM0 1000v200h200v-200h-200zM200 0v200h200v-200h-200zM200 600v200h200v-200h-200zM200 1200v200h200v-200h-200zM400 0v200h200v-200h-200zM400 0h200v-200h-200v200zM400 200v200h200v-200h-200zM400 400v200h200 v-200h-200zM400 600v200h200v-200h-200zM400 800v200h200v-200h-200zM400 1000v200h200v-200h-200zM400 1200v200h200v-200h-200zM400 1400v200h200v-200h-200zM600 0v200h200v-200h-200zM600 600v200h200v-200h-200zM600 1200v200h200v-200h-200zM800 200v200h200v-200 h-200zM800 400v200h200v-200h-200zM800 1000v200h200v-200h-200z" />
<glyph unicode="%" horiz-adv-x="1844" d="M0 1000v200h200v-200h-200zM200 800v200h200v-200h-200zM200 1200v200h200v-200h-200zM400 0v200h200v-200h-200zM400 200v200h200v-200h-200zM400 1000v200h200v-200h-200zM600 400v200h200v-200h-200zM600 600v200h200v-200h-200zM800 800v200h200v-200h-200zM800 1000 v200h200v-200h-200zM1000 400v200h200v-200h-200zM1000 1200v200h200v-200h-200zM1000 1400v200h200v-200h-200zM1200 200v200h200v-200h-200zM1200 600v200h200v-200h-200zM1400 400v200h200v-200h-200z" />
<glyph unicode="&#x26;" horiz-adv-x="1434" d="M0 0v200h200v-200h-200zM0 200v200h200v-200h-200zM0 400v200h200v-200h-200zM0 800v200h200v-200h-200zM0 1000v200h200v-200h-200zM200 0v200h200v-200h-200zM200 600v200h200v-200h-200zM200 1200v200h200v-200h-200zM400 0v200h200v-200h-200zM400 400v200h200v-200 h-200zM400 600v200h200v-200h-200zM400 1200v200h200v-200h-200zM600 200v200h200v-200h-200zM600 800v200h200v-200h-200zM600 1000v200h200v-200h-200zM800 0v200h200v-200h-200zM800 400v200h200v-200h-200zM1000 0v200h200v-200h-200z" />
<glyph unicode="'" horiz-adv-x="410" d="M0 1000v200h200v-200h-200zM0 1200v200h200v-200h-200z" />
<glyph unicode="(" horiz-adv-x="614" d="M0 200v200h200v-200h-200zM0 400v200h200v-200h-200zM0 600v200h200v-200h-200zM0 800v200h200v-200h-200zM0 1000v200h200v-200h-200zM200 0v200h200v-200h-200zM200 1200v200h200v-200h-200z" />
<glyph unicode=")" horiz-adv-x="614" d="M0 0v200h200v-200h-200zM0 1200v200h200v-200h-200zM200 200v200h200v-200h-200zM200 400v200h200v-200h-200zM200 600v200h200v-200h-200zM200 800v200h200v-200h-200zM200 1000v200h200v-200h-200z" />
<glyph unicode="*" d="M0 400v200h200v-200h-200zM0 800v200h200v-200h-200zM0 1200v200h200v-200h-200zM200 600v200h200v-200h-200zM200 800v200h200v-200h-200zM200 1000v200h200v-200h-200zM400 800v200h200v-200h-200zM600 600v200h200v-200h-200zM600 800v200h200v-200h-200zM600 1000 v200h200v-200h-200zM800 400v200h200v-200h-200zM800 800v200h200v-200h-200zM800 1200v200h200v-200h-200z" />
<glyph unicode="+" d="M0 600v200h200v-200h-200zM200 600v200h200v-200h-200zM400 200v200h200v-200h-200zM400 400v200h200v-200h-200zM400 600v200h200v-200h-200zM400 800v200h200v-200h-200zM400 1000v200h200v-200h-200zM600 600v200h200v-200h-200zM800 600v200h200v-200h-200z" />
<glyph unicode="," horiz-adv-x="614" d="M0 0h200v-200h-200v200zM200 0v200h200v-200h-200z" />
<glyph unicode="-" horiz-adv-x="1024" d="M0 600v200h200v-200h-200zM200 600v200h200v-200h-200zM400 600v200h200v-200h-200zM600 600v200h200v-200h-200z" />
<glyph unicode="." horiz-adv-x="410" d="M0 0v200h200v-200h-200z" />
<glyph unicode="/" horiz-adv-x="1024" d="M0 0v200h200v-200h-200zM0 0h200v-200h-200v200zM200 200v200h200v-200h-200zM200 400v200h200v-200h-200zM400 600v200h200v-200h-200zM400 800v200h200v-200h-200zM600 1000v200h200v-200h-200zM600 1200v200h200v-200h-200z" />
<glyph unicode="0" d="M0 200v200h200v-200h-200zM0 400v200h200v-200h-200zM0 600v200h200v-200h-200zM0 800v200h200v-200h-200zM0 1000v200h200v-200h-200zM200 0v200h200v-200h-200zM200 1200v200h200v-200h-200zM400 0v200h200v-200h-200zM400 1200v200h200v-200h-200zM600 0v200h200v-200 h-200zM600 1200v200h200v-200h-200zM800 200v200h200v-200h-200zM800 400v200h200v-200h-200zM800 600v200h200v-200h-200zM800 800v200h200v-200h-200zM800 1000v200h200v-200h-200z" />
<glyph unicode="1" horiz-adv-x="820" d="M0 0v200h200v-200h-200zM0 1000v200h200v-200h-200zM200 0v200h200v-200h-200zM200 200v200h200v-200h-200zM200 400v200h200v-200h-200zM200 600v200h200v-200h-200zM200 800v200h200v-200h-200zM200 1000v200h200v-200h-200zM200 1200v200h200v-200h-200zM400 0v200 h200v-200h-200z" />
<glyph unicode="2" d="M0 0v200h200v-200h-200zM0 200v200h200v-200h-200zM0 1000v200h200v-200h-200zM200 0v200h200v-200h-200zM200 400v200h200v-200h-200zM200 1200v200h200v-200h-200zM400 0v200h200v-200h-200zM400 600v200h200v-200h-200zM400 1200v200h200v-200h-200zM600 0v200h200 v-200h-200zM600 600v200h200v-200h-200zM600 1200v200h200v-200h-200zM800 0v200h200v-200h-200zM800 800v200h200v-200h-200zM800 1000v200h200v-200h-200z" />
<glyph unicode="3" d="M0 200v200h200v-200h-200zM0 1000v200h200v-200h-200zM200 0v200h200v-200h-200zM200 1200v200h200v-200h-200zM400 0v200h200v-200h-200zM400 600v200h200v-200h-200zM400 1200v200h200v-200h-200zM600 0v200h200v-200h-200zM600 600v200h200v-200h-200zM600 1200v200 h200v-200h-200zM800 200v200h200v-200h-200zM800 400v200h200v-200h-200zM800 800v200h200v-200h-200zM800 1000v200h200v-200h-200z" />
<glyph unicode="4" d="M0 400v200h200v-200h-200zM0 600v200h200v-200h-200zM200 400v200h200v-200h-200zM200 800v200h200v-200h-200zM400 400v200h200v-200h-200zM400 1000v200h200v-200h-200zM600 0v200h200v-200h-200zM600 200v200h200v-200h-200zM600 400v200h200v-200h-200zM600 600v200 h200v-200h-200zM600 800v200h200v-200h-200zM600 1000v200h200v-200h-200zM600 1200v200h200v-200h-200zM800 400v200h200v-200h-200z" />
<glyph unicode="5" horiz-adv-x="1024" d="M0 0v200h200v-200h-200zM0 600v200h200v-200h-200zM0 800v200h200v-200h-200zM0 1000v200h200v-200h-200zM0 1200v200h200v-200h-200zM200 0v200h200v-200h-200zM200 600v200h200v-200h-200zM200 1200v200h200v-200h-200zM400 0v200h200v-200h-200zM400 600v200h200v-200 h-200zM400 1200v200h200v-200h-200zM600 200v200h200v-200h-200zM600 400v200h200v-200h-200zM600 1200v200h200v-200h-200z" />
<glyph unicode="6" d="M0 200v200h200v-200h-200zM0 400v200h200v-200h-200zM0 600v200h200v-200h-200zM0 800v200h200v-200h-200zM0 1000v200h200v-200h-200zM200 0v200h200v-200h-200zM200 600v200h200v-200h-200zM200 1200v200h200v-200h-200zM400 0v200h200v-200h-200zM400 600v200h200 v-200h-200zM400 1200v200h200v-200h-200zM600 0v200h200v-200h-200zM600 600v200h200v-200h-200zM600 1200v200h200v-200h-200zM800 200v200h200v-200h-200zM800 400v200h200v-200h-200zM800 1000v200h200v-200h-200z" />
<glyph unicode="7" d="M0 1200v200h200v-200h-200zM200 0v200h200v-200h-200zM200 200v200h200v-200h-200zM200 1200v200h200v-200h-200zM400 400v200h200v-200h-200zM400 600v200h200v-200h-200zM400 1200v200h200v-200h-200zM600 800v200h200v-200h-200zM600 1200v200h200v-200h-200z M800 1000v200h200v-200h-200zM800 1200v200h200v-200h-200z" />
<glyph unicode="8" d="M0 200v200h200v-200h-200zM0 400v200h200v-200h-200zM0 800v200h200v-200h-200zM0 1000v200h200v-200h-200zM200 0v200h200v-200h-200zM200 600v200h200v-200h-200zM200 1200v200h200v-200h-200zM400 0v200h200v-200h-200zM400 600v200h200v-200h-200zM400 1200v200h200 v-200h-200zM600 0v200h200v-200h-200zM600 600v200h200v-200h-200zM600 1200v200h200v-200h-200zM800 200v200h200v-200h-200zM800 400v200h200v-200h-200zM800 800v200h200v-200h-200zM800 1000v200h200v-200h-200z" />
<glyph unicode="9" d="M0 800v200h200v-200h-200zM0 1000v200h200v-200h-200zM200 0v200h200v-200h-200zM200 600v200h200v-200h-200zM200 1200v200h200v-200h-200zM400 0v200h200v-200h-200zM400 600v200h200v-200h-200zM400 1200v200h200v-200h-200zM600 200v200h200v-200h-200zM600 600v200 h200v-200h-200zM600 1200v200h200v-200h-200zM800 400v200h200v-200h-200zM800 600v200h200v-200h-200zM800 800v200h200v-200h-200zM800 1000v200h200v-200h-200z" />
<glyph unicode=":" horiz-adv-x="410" d="M0 200v200h200v-200h-200zM0 1000v200h200v-200h-200z" />
<glyph unicode=";" horiz-adv-x="614" d="M0 0v200h200v-200h-200zM200 200v200h200v-200h-200zM200 1000v200h200v-200h-200z" />
<glyph unicode="&#x3c;" horiz-adv-x="1024" d="M0 600v200h200v-200h-200zM200 400v200h200v-200h-200zM200 800v200h200v-200h-200zM400 200v200h200v-200h-200zM400 1000v200h200v-200h-200zM600 0v200h200v-200h-200zM600 1200v200h200v-200h-200z" />
<glyph unicode="=" d="M0 400v200h200v-200h-200zM0 800v200h200v-200h-200zM200 400v200h200v-200h-200zM200 800v200h200v-200h-200zM400 400v200h200v-200h-200zM400 800v200h200v-200h-200zM600 400v200h200v-200h-200zM600 800v200h200v-200h-200zM800 400v200h200v-200h-200zM800 800v200 h200v-200h-200z" />
<glyph unicode="&#x3e;" horiz-adv-x="1024" d="M0 0v200h200v-200h-200zM0 1200v200h200v-200h-200zM200 200v200h200v-200h-200zM200 1000v200h200v-200h-200zM400 400v200h200v-200h-200zM400 800v200h200v-200h-200zM600 600v200h200v-200h-200z" />
<glyph unicode="?" d="M0 1000v200h200v-200h-200zM200 1200v200h200v-200h-200zM400 0v200h200v-200h-200zM400 400v200h200v-200h-200zM400 600v200h200v-200h-200zM400 1200v200h200v-200h-200zM600 800v200h200v-200h-200zM600 1200v200h200v-200h-200zM800 1000v200h200v-200h-200z" />
<glyph unicode="@" horiz-adv-x="1638" d="M0 200v200h200v-200h-200zM0 400v200h200v-200h-200zM0 600v200h200v-200h-200zM0 800v200h200v-200h-200zM200 0v200h200v-200h-200zM200 1000v200h200v-200h-200zM400 200v200h200v-200h-200zM400 400v200h200v-200h-200zM400 1000v200h200v-200h-200zM600 200v200h200 v-200h-200zM600 600v200h200v-200h-200zM600 1000v200h200v-200h-200zM800 0v200h200v-200h-200zM800 200v200h200v-200h-200zM800 400v200h200v-200h-200zM800 600v200h200v-200h-200zM800 1000v200h200v-200h-200zM1000 0v200h200v-200h-200zM1000 1000v200h200v-200h-200 zM1200 0v200h200v-200h-200zM1200 200v200h200v-200h-200zM1200 400v200h200v-200h-200zM1200 600v200h200v-200h-200zM1200 800v200h200v-200h-200z" />
<glyph unicode="A" d="M0 0v200h200v-200h-200zM0 200v200h200v-200h-200zM0 400v200h200v-200h-200zM0 600v200h200v-200h-200zM0 800v200h200v-200h-200zM0 1000v200h200v-200h-200zM200 600v200h200v-200h-200zM200 1200v200h200v-200h-200zM400 600v200h200v-200h-200zM400 1200v200h200 v-200h-200zM600 600v200h200v-200h-200zM600 1200v200h200v-200h-200zM800 0v200h200v-200h-200zM800 200v200h200v-200h-200zM800 400v200h200v-200h-200zM800 600v200h200v-200h-200zM800 800v200h200v-200h-200zM800 1000v200h200v-200h-200z" />
<glyph unicode="B" d="M0 0v200h200v-200h-200zM0 200v200h200v-200h-200zM0 400v200h200v-200h-200zM0 600v200h200v-200h-200zM0 800v200h200v-200h-200zM0 1000v200h200v-200h-200zM0 1200v200h200v-200h-200zM200 0v200h200v-200h-200zM200 600v200h200v-200h-200zM200 1200v200h200v-200 h-200zM400 0v200h200v-200h-200zM400 600v200h200v-200h-200zM400 1200v200h200v-200h-200zM600 0v200h200v-200h-200zM600 600v200h200v-200h-200zM600 1200v200h200v-200h-200zM800 200v200h200v-200h-200zM800 400v200h200v-200h-200zM800 800v200h200v-200h-200z M800 1000v200h200v-200h-200z" />
<glyph unicode="C" d="M0 200v200h200v-200h-200zM0 400v200h200v-200h-200zM0 600v200h200v-200h-200zM0 800v200h200v-200h-200zM0 1000v200h200v-200h-200zM200 0v200h200v-200h-200zM200 1200v200h200v-200h-200zM400 0v200h200v-200h-200zM400 1200v200h200v-200h-200zM600 0v200h200v-200 h-200zM600 1200v200h200v-200h-200zM800 200v200h200v-200h-200zM800 1000v200h200v-200h-200z" />
<glyph unicode="D" d="M0 0v200h200v-200h-200zM0 200v200h200v-200h-200zM0 400v200h200v-200h-200zM0 600v200h200v-200h-200zM0 800v200h200v-200h-200zM0 1000v200h200v-200h-200zM0 1200v200h200v-200h-200zM200 0v200h200v-200h-200zM200 1200v200h200v-200h-200zM400 0v200h200v-200 h-200zM400 1200v200h200v-200h-200zM600 0v200h200v-200h-200zM600 1200v200h200v-200h-200zM800 200v200h200v-200h-200zM800 400v200h200v-200h-200zM800 600v200h200v-200h-200zM800 800v200h200v-200h-200zM800 1000v200h200v-200h-200z" />
<glyph unicode="E" d="M0 0v200h200v-200h-200zM0 200v200h200v-200h-200zM0 400v200h200v-200h-200zM0 600v200h200v-200h-200zM0 800v200h200v-200h-200zM0 1000v200h200v-200h-200zM0 1200v200h200v-200h-200zM200 0v200h200v-200h-200zM200 600v200h200v-200h-200zM200 1200v200h200v-200 h-200zM400 0v200h200v-200h-200zM400 600v200h200v-200h-200zM400 1200v200h200v-200h-200zM600 0v200h200v-200h-200zM600 600v200h200v-200h-200zM600 1200v200h200v-200h-200zM800 0v200h200v-200h-200zM800 1200v200h200v-200h-200z" />
<glyph unicode="F" d="M0 0v200h200v-200h-200zM0 200v200h200v-200h-200zM0 400v200h200v-200h-200zM0 600v200h200v-200h-200zM0 800v200h200v-200h-200zM0 1000v200h200v-200h-200zM0 1200v200h200v-200h-200zM200 600v200h200v-200h-200zM200 1200v200h200v-200h-200zM400 600v200h200v-200 h-200zM400 1200v200h200v-200h-200zM600 600v200h200v-200h-200zM600 1200v200h200v-200h-200zM800 1200v200h200v-200h-200z" />
<glyph unicode="G" d="M0 200v200h200v-200h-200zM0 400v200h200v-200h-200zM0 600v200h200v-200h-200zM0 800v200h200v-200h-200zM0 1000v200h200v-200h-200zM200 0v200h200v-200h-200zM200 1200v200h200v-200h-200zM400 0v200h200v-200h-200zM400 1200v200h200v-200h-200zM600 0v200h200v-200 h-200zM600 600v200h200v-200h-200zM600 1200v200h200v-200h-200zM800 200v200h200v-200h-200zM800 400v200h200v-200h-200zM800 600v200h200v-200h-200zM800 1000v200h200v-200h-200z" />
<glyph unicode="H" d="M0 0v200h200v-200h-200zM0 200v200h200v-200h-200zM0 400v200h200v-200h-200zM0 600v200h200v-200h-200zM0 800v200h200v-200h-200zM0 1000v200h200v-200h-200zM0 1200v200h200v-200h-200zM200 600v200h200v-200h-200zM400 600v200h200v-200h-200zM600 600v200h200v-200 h-200zM800 0v200h200v-200h-200zM800 200v200h200v-200h-200zM800 400v200h200v-200h-200zM800 600v200h200v-200h-200zM800 800v200h200v-200h-200zM800 1000v200h200v-200h-200zM800 1200v200h200v-200h-200z" />
<glyph unicode="I" d="M0 0v200h200v-200h-200zM0 1200v200h200v-200h-200zM200 0v200h200v-200h-200zM200 1200v200h200v-200h-200zM400 0v200h200v-200h-200zM400 200v200h200v-200h-200zM400 400v200h200v-200h-200zM400 600v200h200v-200h-200zM400 800v200h200v-200h-200zM400 1000v200 h200v-200h-200zM400 1200v200h200v-200h-200zM600 0v200h200v-200h-200zM600 1200v200h200v-200h-200zM800 0v200h200v-200h-200zM800 1200v200h200v-200h-200z" />
<glyph unicode="J" d="M0 200v200h200v-200h-200zM0 400v200h200v-200h-200zM200 0v200h200v-200h-200zM400 0v200h200v-200h-200zM600 0v200h200v-200h-200zM800 200v200h200v-200h-200zM800 400v200h200v-200h-200zM800 600v200h200v-200h-200zM800 800v200h200v-200h-200zM800 1000v200h200 v-200h-200zM800 1200v200h200v-200h-200z" />
<glyph unicode="K" d="M0 0v200h200v-200h-200zM0 200v200h200v-200h-200zM0 400v200h200v-200h-200zM0 600v200h200v-200h-200zM0 800v200h200v-200h-200zM0 1000v200h200v-200h-200zM0 1200v200h200v-200h-200zM200 600v200h200v-200h-200zM400 400v200h200v-200h-200zM400 800v200h200v-200 h-200zM600 200v200h200v-200h-200zM600 1000v200h200v-200h-200zM800 0v200h200v-200h-200zM800 1200v200h200v-200h-200z" />
<glyph unicode="L" d="M0 0v200h200v-200h-200zM0 200v200h200v-200h-200zM0 400v200h200v-200h-200zM0 600v200h200v-200h-200zM0 800v200h200v-200h-200zM0 1000v200h200v-200h-200zM0 1200v200h200v-200h-200zM200 0v200h200v-200h-200zM400 0v200h200v-200h-200zM600 0v200h200v-200h-200z M800 0v200h200v-200h-200z" />
<glyph unicode="M" d="M0 0v200h200v-200h-200zM0 200v200h200v-200h-200zM0 400v200h200v-200h-200zM0 600v200h200v-200h-200zM0 800v200h200v-200h-200zM0 1000v200h200v-200h-200zM0 1200v200h200v-200h-200zM200 1000v200h200v-200h-200zM400 800v200h200v-200h-200zM600 1000v200h200 v-200h-200zM800 0v200h200v-200h-200zM800 200v200h200v-200h-200zM800 400v200h200v-200h-200zM800 600v200h200v-200h-200zM800 800v200h200v-200h-200zM800 1000v200h200v-200h-200zM800 1200v200h200v-200h-200z" />
<glyph unicode="N" d="M0 0v200h200v-200h-200zM0 200v200h200v-200h-200zM0 400v200h200v-200h-200zM0 600v200h200v-200h-200zM0 800v200h200v-200h-200zM0 1000v200h200v-200h-200zM0 1200v200h200v-200h-200zM200 800v200h200v-200h-200zM400 600v200h200v-200h-200zM600 400v200h200v-200 h-200zM800 0v200h200v-200h-200zM800 200v200h200v-200h-200zM800 400v200h200v-200h-200zM800 600v200h200v-200h-200zM800 800v200h200v-200h-200zM800 1000v200h200v-200h-200zM800 1200v200h200v-200h-200z" />
<glyph unicode="O" d="M0 200v200h200v-200h-200zM0 400v200h200v-200h-200zM0 600v200h200v-200h-200zM0 800v200h200v-200h-200zM0 1000v200h200v-200h-200zM200 0v200h200v-200h-200zM200 1200v200h200v-200h-200zM400 0v200h200v-200h-200zM400 1200v200h200v-200h-200zM600 0v200h200v-200 h-200zM600 1200v200h200v-200h-200zM800 200v200h200v-200h-200zM800 400v200h200v-200h-200zM800 600v200h200v-200h-200zM800 800v200h200v-200h-200zM800 1000v200h200v-200h-200z" />
<glyph unicode="P" d="M0 0v200h200v-200h-200zM0 200v200h200v-200h-200zM0 400v200h200v-200h-200zM0 600v200h200v-200h-200zM0 800v200h200v-200h-200zM0 1000v200h200v-200h-200zM0 1200v200h200v-200h-200zM200 600v200h200v-200h-200zM200 1200v200h200v-200h-200zM400 600v200h200v-200 h-200zM400 1200v200h200v-200h-200zM600 600v200h200v-200h-200zM600 1200v200h200v-200h-200zM800 800v200h200v-200h-200zM800 1000v200h200v-200h-200z" />
<glyph unicode="Q" horiz-adv-x="1434" d="M0 400v200h200v-200h-200zM0 600v200h200v-200h-200zM0 800v200h200v-200h-200zM0 1000v200h200v-200h-200zM200 200v200h200v-200h-200zM200 1200v200h200v-200h-200zM400 200v200h200v-200h-200zM400 1200v200h200v-200h-200zM600 200v200h200v-200h-200zM600 1200v200 h200v-200h-200zM800 0v200h200v-200h-200zM800 200v200h200v-200h-200zM800 1200v200h200v-200h-200zM1000 0v200h200v-200h-200zM1000 400v200h200v-200h-200zM1000 600v200h200v-200h-200zM1000 800v200h200v-200h-200zM1000 1000v200h200v-200h-200z" />
<glyph unicode="R" d="M0 0v200h200v-200h-200zM0 200v200h200v-200h-200zM0 400v200h200v-200h-200zM0 600v200h200v-200h-200zM0 800v200h200v-200h-200zM0 1000v200h200v-200h-200zM0 1200v200h200v-200h-200zM200 600v200h200v-200h-200zM200 1200v200h200v-200h-200zM400 400v200h200v-200 h-200zM400 600v200h200v-200h-200zM400 1200v200h200v-200h-200zM600 200v200h200v-200h-200zM600 600v200h200v-200h-200zM600 1200v200h200v-200h-200zM800 0v200h200v-200h-200zM800 800v200h200v-200h-200zM800 1000v200h200v-200h-200z" />
<glyph unicode="S" d="M0 200v200h200v-200h-200zM0 800v200h200v-200h-200zM0 1000v200h200v-200h-200zM200 0v200h200v-200h-200zM200 600v200h200v-200h-200zM200 1200v200h200v-200h-200zM400 0v200h200v-200h-200zM400 600v200h200v-200h-200zM400 1200v200h200v-200h-200zM600 0v200h200 v-200h-200zM600 600v200h200v-200h-200zM600 1200v200h200v-200h-200zM800 200v200h200v-200h-200zM800 400v200h200v-200h-200zM800 1000v200h200v-200h-200z" />
<glyph unicode="T" d="M0 1200v200h200v-200h-200zM200 1200v200h200v-200h-200zM400 0v200h200v-200h-200zM400 200v200h200v-200h-200zM400 400v200h200v-200h-200zM400 600v200h200v-200h-200zM400 800v200h200v-200h-200zM400 1000v200h200v-200h-200zM400 1200v200h200v-200h-200z M600 1200v200h200v-200h-200zM800 1200v200h200v-200h-200z" />
<glyph unicode="U" d="M0 200v200h200v-200h-200zM0 400v200h200v-200h-200zM0 600v200h200v-200h-200zM0 800v200h200v-200h-200zM0 1000v200h200v-200h-200zM0 1200v200h200v-200h-200zM200 0v200h200v-200h-200zM400 0v200h200v-200h-200zM600 0v200h200v-200h-200zM800 200v200h200v-200 h-200zM800 400v200h200v-200h-200zM800 600v200h200v-200h-200zM800 800v200h200v-200h-200zM800 1000v200h200v-200h-200zM800 1200v200h200v-200h-200z" />
<glyph unicode="V" d="M0 400v200h200v-200h-200zM0 600v200h200v-200h-200zM0 800v200h200v-200h-200zM0 1000v200h200v-200h-200zM0 1200v200h200v-200h-200zM200 200v200h200v-200h-200zM400 0v200h200v-200h-200zM600 200v200h200v-200h-200zM800 400v200h200v-200h-200zM800 600v200h200 v-200h-200zM800 800v200h200v-200h-200zM800 1000v200h200v-200h-200zM800 1200v200h200v-200h-200z" />
<glyph unicode="W" d="M0 400v200h200v-200h-200zM0 600v200h200v-200h-200zM0 800v200h200v-200h-200zM0 1000v200h200v-200h-200zM0 1200v200h200v-200h-200zM200 0v200h200v-200h-200zM200 200v200h200v-200h-200zM400 400v200h200v-200h-200zM400 600v200h200v-200h-200zM400 800v200h200 v-200h-200zM600 0v200h200v-200h-200zM600 200v200h200v-200h-200zM800 400v200h200v-200h-200zM800 600v200h200v-200h-200zM800 800v200h200v-200h-200zM800 1000v200h200v-200h-200zM800 1200v200h200v-200h-200z" />
<glyph unicode="X" d="M0 0v200h200v-200h-200zM0 200v200h200v-200h-200zM0 1000v200h200v-200h-200zM0 1200v200h200v-200h-200zM200 400v200h200v-200h-200zM200 800v200h200v-200h-200zM400 600v200h200v-200h-200zM600 400v200h200v-200h-200zM600 800v200h200v-200h-200zM800 0v200h200 v-200h-200zM800 200v200h200v-200h-200zM800 1000v200h200v-200h-200zM800 1200v200h200v-200h-200z" />
<glyph unicode="Y" d="M0 1000v200h200v-200h-200zM0 1200v200h200v-200h-200zM200 800v200h200v-200h-200zM400 0v200h200v-200h-200zM400 200v200h200v-200h-200zM400 400v200h200v-200h-200zM400 600v200h200v-200h-200zM600 800v200h200v-200h-200zM800 1000v200h200v-200h-200zM800 1200 v200h200v-200h-200z" />
<glyph unicode="Z" d="M0 0v200h200v-200h-200zM0 200v200h200v-200h-200zM0 1200v200h200v-200h-200zM200 0v200h200v-200h-200zM200 400v200h200v-200h-200zM200 1200v200h200v-200h-200zM400 0v200h200v-200h-200zM400 600v200h200v-200h-200zM400 1200v200h200v-200h-200zM600 0v200h200 v-200h-200zM600 800v200h200v-200h-200zM600 1200v200h200v-200h-200zM800 0v200h200v-200h-200zM800 1000v200h200v-200h-200zM800 1200v200h200v-200h-200z" />
<glyph unicode="[" horiz-adv-x="614" d="M0 0v200h200v-200h-200zM0 200v200h200v-200h-200zM0 400v200h200v-200h-200zM0 600v200h200v-200h-200zM0 800v200h200v-200h-200zM0 1000v200h200v-200h-200zM0 1200v200h200v-200h-200zM200 0v200h200v-200h-200zM200 1200v200h200v-200h-200z" />
<glyph unicode="\" horiz-adv-x="1024" d="M0 1000v200h200v-200h-200zM0 1200v200h200v-200h-200zM200 600v200h200v-200h-200zM200 800v200h200v-200h-200zM400 200v200h200v-200h-200zM400 400v200h200v-200h-200zM600 0v200h200v-200h-200zM600 0h200v-200h-200v200z" />
<glyph unicode="]" horiz-adv-x="614" d="M0 0v200h200v-200h-200zM0 1200v200h200v-200h-200zM200 0v200h200v-200h-200zM200 200v200h200v-200h-200zM200 400v200h200v-200h-200zM200 600v200h200v-200h-200zM200 800v200h200v-200h-200zM200 1000v200h200v-200h-200zM200 1200v200h200v-200h-200z" />
<glyph unicode="^" horiz-adv-x="820" d="M0 1000v200h200v-200h-200zM0 1200v200h200v-200h-200zM200 1400v200h200v-200h-200zM400 1000v200h200v-200h-200zM400 1200v200h200v-200h-200z" />
<glyph unicode="_" d="M0 0v200h200v-200h-200zM200 0v200h200v-200h-200zM400 0v200h200v-200h-200zM600 0v200h200v-200h-200zM800 0v200h200v-200h-200z" />
<glyph unicode="`" horiz-adv-x="614" d="M0 1200v200h200v-200h-200zM200 1000v200h200v-200h-200z" />
<glyph unicode="a" d="M0 200v200h200v-200h-200zM0 400v200h200v-200h-200zM0 600v200h200v-200h-200zM200 0v200h200v-200h-200zM200 800v200h200v-200h-200zM400 0v200h200v-200h-200zM400 800v200h200v-200h-200zM600 0v200h200v-200h-200zM600 200v200h200v-200h-200zM600 400v200h200 v-200h-200zM600 600v200h200v-200h-200zM600 800v200h200v-200h-200zM800 0v200h200v-200h-200z" />
<glyph unicode="b" horiz-adv-x="1024" d="M0 0v200h200v-200h-200zM0 200v200h200v-200h-200zM0 400v200h200v-200h-200zM0 600v200h200v-200h-200zM0 800v200h200v-200h-200zM0 1000v200h200v-200h-200zM0 1200v200h200v-200h-200zM200 0v200h200v-200h-200zM200 800v200h200v-200h-200zM400 0v200h200v-200h-200 zM400 800v200h200v-200h-200zM600 200v200h200v-200h-200zM600 400v200h200v-200h-200zM600 600v200h200v-200h-200z" />
<glyph unicode="c" horiz-adv-x="1024" d="M0 200v200h200v-200h-200zM0 400v200h200v-200h-200zM0 600v200h200v-200h-200zM200 0v200h200v-200h-200zM200 800v200h200v-200h-200zM400 0v200h200v-200h-200zM400 800v200h200v-200h-200zM600 0v200h200v-200h-200zM600 800v200h200v-200h-200z" />
<glyph unicode="d" horiz-adv-x="1024" d="M0 200v200h200v-200h-200zM0 400v200h200v-200h-200zM0 600v200h200v-200h-200zM200 0v200h200v-200h-200zM200 800v200h200v-200h-200zM400 0v200h200v-200h-200zM400 800v200h200v-200h-200zM600 0v200h200v-200h-200zM600 200v200h200v-200h-200zM600 400v200h200 v-200h-200zM600 600v200h200v-200h-200zM600 800v200h200v-200h-200zM600 1000v200h200v-200h-200zM600 1200v200h200v-200h-200z" />
<glyph unicode="e" d="M0 200v200h200v-200h-200zM0 400v200h200v-200h-200zM0 600v200h200v-200h-200zM200 0v200h200v-200h-200zM200 400v200h200v-200h-200zM200 800v200h200v-200h-200zM400 0v200h200v-200h-200zM400 400v200h200v-200h-200zM400 800v200h200v-200h-200zM600 0v200h200 v-200h-200zM600 400v200h200v-200h-200zM600 800v200h200v-200h-200zM800 0v200h200v-200h-200zM800 400v200h200v-200h-200zM800 600v200h200v-200h-200z" />
<glyph unicode="f" horiz-adv-x="1024" d="M0 0h200v-200h-200v200zM0 800v200h200v-200h-200zM200 0v200h200v-200h-200zM200 200v200h200v-200h-200zM200 400v200h200v-200h-200zM200 600v200h200v-200h-200zM200 800v200h200v-200h-200zM200 1000v200h200v-200h-200zM200 1200v200h200v-200h-200zM400 800v200 h200v-200h-200zM400 1400v200h200v-200h-200zM600 800v200h200v-200h-200zM600 1400v200h200v-200h-200z" />
<glyph unicode="g" horiz-adv-x="1024" d="M0 0h200v-200h-200v200zM0 200v200h200v-200h-200zM0 400v200h200v-200h-200zM0 600v200h200v-200h-200zM200 0v200h200v-200h-200zM200 -200h200v-200h-200v200zM200 800v200h200v-200h-200zM400 0v200h200v-200h-200zM400 -200h200v-200h-200v200zM400 800v200h200 v-200h-200zM600 0v200h200v-200h-200zM600 0h200v-200h-200v200zM600 200v200h200v-200h-200zM600 400v200h200v-200h-200zM600 600v200h200v-200h-200zM600 800v200h200v-200h-200z" />
<glyph unicode="h" horiz-adv-x="1024" d="M0 0v200h200v-200h-200zM0 200v200h200v-200h-200zM0 400v200h200v-200h-200zM0 600v200h200v-200h-200zM0 800v200h200v-200h-200zM0 1000v200h200v-200h-200zM0 1200v200h200v-200h-200zM200 800v200h200v-200h-200zM400 800v200h200v-200h-200zM600 0v200h200v-200 h-200zM600 200v200h200v-200h-200zM600 400v200h200v-200h-200zM600 600v200h200v-200h-200z" />
<glyph unicode="i" horiz-adv-x="820" d="M0 0v200h200v-200h-200zM0 800v200h200v-200h-200zM200 0v200h200v-200h-200zM200 200v200h200v-200h-200zM200 400v200h200v-200h-200zM200 600v200h200v-200h-200zM200 800v200h200v-200h-200zM200 1200v200h200v-200h-200zM400 0v200h200v-200h-200z" />
<glyph unicode="j" horiz-adv-x="1024" d="M0 0h200v-200h-200v200zM200 -200h200v-200h-200v200zM400 -200h200v-200h-200v200zM400 800v200h200v-200h-200zM600 0v200h200v-200h-200zM600 0h200v-200h-200v200zM600 200v200h200v-200h-200zM600 400v200h200v-200h-200zM600 600v200h200v-200h-200zM600 800v200 h200v-200h-200zM600 1200v200h200v-200h-200z" />
<glyph unicode="k" horiz-adv-x="1024" d="M0 0v200h200v-200h-200zM0 200v200h200v-200h-200zM0 400v200h200v-200h-200zM0 600v200h200v-200h-200zM0 800v200h200v-200h-200zM0 1000v200h200v-200h-200zM0 1200v200h200v-200h-200zM200 400v200h200v-200h-200zM400 400v200h200v-200h-200zM400 600v200h200v-200 h-200zM600 0v200h200v-200h-200zM600 200v200h200v-200h-200zM600 800v200h200v-200h-200z" />
<glyph unicode="l" horiz-adv-x="410" d="M0 0v200h200v-200h-200zM0 200v200h200v-200h-200zM0 400v200h200v-200h-200zM0 600v200h200v-200h-200zM0 800v200h200v-200h-200zM0 1000v200h200v-200h-200zM0 1200v200h200v-200h-200z" />
<glyph unicode="m" d="M0 0v200h200v-200h-200zM0 200v200h200v-200h-200zM0 400v200h200v-200h-200zM0 600v200h200v-200h-200zM0 800v200h200v-200h-200zM200 800v200h200v-200h-200zM400 0v200h200v-200h-200zM400 200v200h200v-200h-200zM400 400v200h200v-200h-200zM400 600v200h200v-200 h-200zM600 800v200h200v-200h-200zM800 0v200h200v-200h-200zM800 200v200h200v-200h-200zM800 400v200h200v-200h-200zM800 600v200h200v-200h-200z" />
<glyph unicode="n" horiz-adv-x="1024" d="M0 0v200h200v-200h-200zM0 200v200h200v-200h-200zM0 400v200h200v-200h-200zM0 600v200h200v-200h-200zM0 800v200h200v-200h-200zM200 800v200h200v-200h-200zM400 800v200h200v-200h-200zM600 0v200h200v-200h-200zM600 200v200h200v-200h-200zM600 400v200h200v-200 h-200zM600 600v200h200v-200h-200z" />
<glyph unicode="o" d="M0 200v200h200v-200h-200zM0 400v200h200v-200h-200zM0 600v200h200v-200h-200zM200 0v200h200v-200h-200zM200 800v200h200v-200h-200zM400 0v200h200v-200h-200zM400 800v200h200v-200h-200zM600 0v200h200v-200h-200zM600 800v200h200v-200h-200zM800 200v200h200 v-200h-200zM800 400v200h200v-200h-200zM800 600v200h200v-200h-200z" />
<glyph unicode="p" horiz-adv-x="1024" d="M0 0v200h200v-200h-200zM0 0h200v-200h-200v200zM0 200v200h200v-200h-200zM0 -200h200v-200h-200v200zM0 400v200h200v-200h-200zM0 600v200h200v-200h-200zM0 800v200h200v-200h-200zM200 0v200h200v-200h-200zM200 800v200h200v-200h-200zM400 0v200h200v-200h-200z M400 800v200h200v-200h-200zM600 200v200h200v-200h-200zM600 400v200h200v-200h-200zM600 600v200h200v-200h-200z" />
<glyph unicode="q" horiz-adv-x="1024" d="M0 200v200h200v-200h-200zM0 400v200h200v-200h-200zM0 600v200h200v-200h-200zM200 0v200h200v-200h-200zM200 800v200h200v-200h-200zM400 0v200h200v-200h-200zM400 800v200h200v-200h-200zM600 0v200h200v-200h-200zM600 0h200v-200h-200v200zM600 200v200h200v-200 h-200zM600 -200h200v-200h-200v200zM600 400v200h200v-200h-200zM600 600v200h200v-200h-200z" />
<glyph unicode="r" horiz-adv-x="1024" d="M0 0v200h200v-200h-200zM0 200v200h200v-200h-200zM0 400v200h200v-200h-200zM0 600v200h200v-200h-200zM0 800v200h200v-200h-200zM200 600v200h200v-200h-200zM400 800v200h200v-200h-200zM600 800v200h200v-200h-200z" />
<glyph unicode="s" horiz-adv-x="1024" d="M0 0v200h200v-200h-200zM0 600v200h200v-200h-200zM200 0v200h200v-200h-200zM200 400v200h200v-200h-200zM200 800v200h200v-200h-200zM400 0v200h200v-200h-200zM400 400v200h200v-200h-200zM400 800v200h200v-200h-200zM600 200v200h200v-200h-200zM600 800v200h200 v-200h-200z" />
<glyph unicode="t" horiz-adv-x="1024" d="M0 800v200h200v-200h-200zM200 200v200h200v-200h-200zM200 400v200h200v-200h-200zM200 600v200h200v-200h-200zM200 800v200h200v-200h-200zM200 1000v200h200v-200h-200zM200 1200v200h200v-200h-200zM400 0v200h200v-200h-200zM400 800v200h200v-200h-200zM600 0v200 h200v-200h-200zM600 800v200h200v-200h-200z" />
<glyph unicode="u" horiz-adv-x="1024" d="M0 200v200h200v-200h-200zM0 400v200h200v-200h-200zM0 600v200h200v-200h-200zM0 800v200h200v-200h-200zM200 0v200h200v-200h-200zM400 0v200h200v-200h-200zM600 0v200h200v-200h-200zM600 200v200h200v-200h-200zM600 400v200h200v-200h-200zM600 600v200h200v-200 h-200zM600 800v200h200v-200h-200z" />
<glyph unicode="v" d="M0 600v200h200v-200h-200zM0 800v200h200v-200h-200zM200 200v200h200v-200h-200zM200 400v200h200v-200h-200zM400 0v200h200v-200h-200zM600 200v200h200v-200h-200zM600 400v200h200v-200h-200zM800 600v200h200v-200h-200zM800 800v200h200v-200h-200z" />
<glyph unicode="w" d="M0 400v200h200v-200h-200zM0 600v200h200v-200h-200zM0 800v200h200v-200h-200zM200 0v200h200v-200h-200zM200 200v200h200v-200h-200zM400 400v200h200v-200h-200zM400 600v200h200v-200h-200zM600 0v200h200v-200h-200zM600 200v200h200v-200h-200zM800 400v200h200 v-200h-200zM800 600v200h200v-200h-200zM800 800v200h200v-200h-200z" />
<glyph unicode="x" d="M0 0v200h200v-200h-200zM0 800v200h200v-200h-200zM200 200v200h200v-200h-200zM200 600v200h200v-200h-200zM400 400v200h200v-200h-200zM600 200v200h200v-200h-200zM600 600v200h200v-200h-200zM800 0v200h200v-200h-200zM800 800v200h200v-200h-200z" />
<glyph unicode="y" horiz-adv-x="1024" d="M0 200v200h200v-200h-200zM0 400v200h200v-200h-200zM0 600v200h200v-200h-200zM0 800v200h200v-200h-200zM200 0v200h200v-200h-200zM200 -200h200v-200h-200v200zM400 0v200h200v-200h-200zM400 -200h200v-200h-200v200zM600 0v200h200v-200h-200zM600 0h200v-200h-200 v200zM600 200v200h200v-200h-200zM600 400v200h200v-200h-200zM600 600v200h200v-200h-200zM600 800v200h200v-200h-200z" />
<glyph unicode="z" d="M0 0v200h200v-200h-200zM0 800v200h200v-200h-200zM200 0v200h200v-200h-200zM200 200v200h200v-200h-200zM200 800v200h200v-200h-200zM400 0v200h200v-200h-200zM400 400v200h200v-200h-200zM400 800v200h200v-200h-200zM600 0v200h200v-200h-200zM600 600v200h200 v-200h-200zM600 800v200h200v-200h-200zM800 0v200h200v-200h-200zM800 800v200h200v-200h-200z" />
<glyph unicode="{" horiz-adv-x="820" d="M0 400v200h200v-200h-200zM200 0v200h200v-200h-200zM200 0h200v-200h-200v200zM200 200v200h200v-200h-200zM200 400v200h200v-200h-200zM200 600v200h200v-200h-200zM200 800v200h200v-200h-200zM200 1000v200h200v-200h-200zM400 0h200v-200h-200v200zM400 1000v200 h200v-200h-200z" />
<glyph unicode="|" horiz-adv-x="410" d="M0 0v200h200v-200h-200zM0 200v200h200v-200h-200zM0 400v200h200v-200h-200zM0 600v200h200v-200h-200zM0 800v200h200v-200h-200zM0 1000v200h200v-200h-200zM0 1200v200h200v-200h-200z" />
<glyph unicode="}" horiz-adv-x="820" d="M0 0h200v-200h-200v200zM0 1000v200h200v-200h-200zM200 0v200h200v-200h-200zM200 0h200v-200h-200v200zM200 200v200h200v-200h-200zM200 400v200h200v-200h-200zM200 600v200h200v-200h-200zM200 800v200h200v-200h-200zM200 1000v200h200v-200h-200zM400 400v200h200 v-200h-200z" />
<glyph unicode="~" d="M0 600v200h200v-200h-200zM200 800v200h200v-200h-200zM400 600v200h200v-200h-200zM600 400v200h200v-200h-200zM800 600v200h200v-200h-200z" />
<glyph unicode="&#xaa;" d="M0 200v200h200v-200h-200zM0 400v200h200v-200h-200zM0 600v200h200v-200h-200zM200 0v200h200v-200h-200zM200 800v200h200v-200h-200zM400 0v200h200v-200h-200zM400 800v200h200v-200h-200zM600 0v200h200v-200h-200zM600 200v200h200v-200h-200zM600 400v200h200 v-200h-200zM600 600v200h200v-200h-200zM600 800v200h200v-200h-200zM800 0v200h200v-200h-200z" />
<glyph unicode="&#xad;" horiz-adv-x="1024" d="M0 600v200h200v-200h-200zM200 600v200h200v-200h-200zM400 600v200h200v-200h-200zM600 600v200h200v-200h-200z" />
<glyph unicode="&#xb2;" d="M0 0v200h200v-200h-200zM0 200v200h200v-200h-200zM0 1000v200h200v-200h-200zM200 0v200h200v-200h-200zM200 400v200h200v-200h-200zM200 1200v200h200v-200h-200zM400 0v200h200v-200h-200zM400 600v200h200v-200h-200zM400 1200v200h200v-200h-200zM600 0v200h200 v-200h-200zM600 600v200h200v-200h-200zM600 1200v200h200v-200h-200zM800 0v200h200v-200h-200zM800 800v200h200v-200h-200zM800 1000v200h200v-200h-200z" />
<glyph unicode="&#xb3;" d="M0 200v200h200v-200h-200zM0 1000v200h200v-200h-200zM200 0v200h200v-200h-200zM200 1200v200h200v-200h-200zM400 0v200h200v-200h-200zM400 600v200h200v-200h-200zM400 1200v200h200v-200h-200zM600 0v200h200v-200h-200zM600 600v200h200v-200h-200zM600 1200v200 h200v-200h-200zM800 200v200h200v-200h-200zM800 400v200h200v-200h-200zM800 800v200h200v-200h-200zM800 1000v200h200v-200h-200z" />
<glyph unicode="&#xb9;" horiz-adv-x="820" d="M0 0v200h200v-200h-200zM0 1000v200h200v-200h-200zM200 0v200h200v-200h-200zM200 200v200h200v-200h-200zM200 400v200h200v-200h-200zM200 600v200h200v-200h-200zM200 800v200h200v-200h-200zM200 1000v200h200v-200h-200zM200 1200v200h200v-200h-200zM400 0v200 h200v-200h-200z" />
<glyph unicode="&#xba;" d="M0 200v200h200v-200h-200zM0 400v200h200v-200h-200zM0 600v200h200v-200h-200zM200 0v200h200v-200h-200zM200 800v200h200v-200h-200zM400 0v200h200v-200h-200zM400 800v200h200v-200h-200zM600 0v200h200v-200h-200zM600 800v200h200v-200h-200zM800 200v200h200 v-200h-200zM800 400v200h200v-200h-200zM800 600v200h200v-200h-200z" />
<glyph unicode="&#xc0;" d="M0 0v200h200v-200h-200zM0 200v200h200v-200h-200zM0 400v200h200v-200h-200zM0 600v200h200v-200h-200zM0 800v200h200v-200h-200zM0 1000v200h200v-200h-200zM200 600v200h200v-200h-200zM200 1200v200h200v-200h-200zM200 1722v200h200v-200h-200zM400 600v200h200 v-200h-200zM400 1200v200h200v-200h-200zM400 1522v200h200v-200h-200zM600 600v200h200v-200h-200zM600 1200v200h200v-200h-200zM800 0v200h200v-200h-200zM800 200v200h200v-200h-200zM800 400v200h200v-200h-200zM800 600v200h200v-200h-200zM800 800v200h200v-200h-200 zM800 1000v200h200v-200h-200z" />
<glyph unicode="&#xc2;" d="M0 0v200h200v-200h-200zM0 200v200h200v-200h-200zM0 400v200h200v-200h-200zM0 600v200h200v-200h-200zM0 800v200h200v-200h-200zM0 1000v200h200v-200h-200zM200 600v200h200v-200h-200zM200 1200v200h200v-200h-200zM200 1522v200h200v-200h-200zM200 1722v200h200 v-200h-200zM400 600v200h200v-200h-200zM400 1200v200h200v-200h-200zM400 1922v200h200v-200h-200zM600 600v200h200v-200h-200zM600 1200v200h200v-200h-200zM600 1522v200h200v-200h-200zM600 1722v200h200v-200h-200zM800 0v200h200v-200h-200zM800 200v200h200v-200 h-200zM800 400v200h200v-200h-200zM800 600v200h200v-200h-200zM800 800v200h200v-200h-200zM800 1000v200h200v-200h-200z" />
<glyph unicode="&#xc3;" d="M0 0v200h200v-200h-200zM0 200v200h200v-200h-200zM0 400v200h200v-200h-200zM0 600v200h200v-200h-200zM0 800v200h200v-200h-200zM0 1000v200h200v-200h-200zM0 1722v200h200v-200h-200zM200 600v200h200v-200h-200zM200 1200v200h200v-200h-200zM200 1922v200h200 v-200h-200zM400 600v200h200v-200h-200zM400 1200v200h200v-200h-200zM400 1722v200h200v-200h-200zM600 600v200h200v-200h-200zM600 1200v200h200v-200h-200zM600 1522v200h200v-200h-200zM800 0v200h200v-200h-200zM800 200v200h200v-200h-200zM800 400v200h200v-200 h-200zM800 600v200h200v-200h-200zM800 800v200h200v-200h-200zM800 1000v200h200v-200h-200zM800 1722v200h200v-200h-200z" />
<glyph unicode="&#xc8;" d="M0 0v200h200v-200h-200zM0 200v200h200v-200h-200zM0 400v200h200v-200h-200zM0 600v200h200v-200h-200zM0 800v200h200v-200h-200zM0 1000v200h200v-200h-200zM0 1200v200h200v-200h-200zM200 0v200h200v-200h-200zM200 600v200h200v-200h-200zM200 1200v200h200v-200 h-200zM200 1722v200h200v-200h-200zM400 0v200h200v-200h-200zM400 600v200h200v-200h-200zM400 1200v200h200v-200h-200zM400 1522v200h200v-200h-200zM600 0v200h200v-200h-200zM600 600v200h200v-200h-200zM600 1200v200h200v-200h-200zM800 0v200h200v-200h-200z M800 1200v200h200v-200h-200z" />
<glyph unicode="&#xca;" d="M0 0v200h200v-200h-200zM0 200v200h200v-200h-200zM0 400v200h200v-200h-200zM0 600v200h200v-200h-200zM0 800v200h200v-200h-200zM0 1000v200h200v-200h-200zM0 1200v200h200v-200h-200zM200 0v200h200v-200h-200zM200 600v200h200v-200h-200zM200 1200v200h200v-200 h-200zM200 1522v200h200v-200h-200zM200 1722v200h200v-200h-200zM400 0v200h200v-200h-200zM400 600v200h200v-200h-200zM400 1200v200h200v-200h-200zM400 1922v200h200v-200h-200zM600 0v200h200v-200h-200zM600 600v200h200v-200h-200zM600 1200v200h200v-200h-200z M600 1522v200h200v-200h-200zM600 1722v200h200v-200h-200zM800 0v200h200v-200h-200zM800 1200v200h200v-200h-200z" />
<glyph unicode="&#xcc;" d="M0 0v200h200v-200h-200zM0 1200v200h200v-200h-200zM200 0v200h200v-200h-200zM200 1200v200h200v-200h-200zM200 1722v200h200v-200h-200zM400 0v200h200v-200h-200zM400 200v200h200v-200h-200zM400 400v200h200v-200h-200zM400 600v200h200v-200h-200zM400 800v200 h200v-200h-200zM400 1000v200h200v-200h-200zM400 1200v200h200v-200h-200zM400 1522v200h200v-200h-200zM600 0v200h200v-200h-200zM600 1200v200h200v-200h-200zM800 0v200h200v-200h-200zM800 1200v200h200v-200h-200z" />
<glyph unicode="&#xce;" d="M0 0v200h200v-200h-200zM0 1200v200h200v-200h-200zM200 0v200h200v-200h-200zM200 1200v200h200v-200h-200zM200 1522v200h200v-200h-200zM200 1722v200h200v-200h-200zM400 0v200h200v-200h-200zM400 200v200h200v-200h-200zM400 400v200h200v-200h-200zM400 600v200 h200v-200h-200zM400 800v200h200v-200h-200zM400 1000v200h200v-200h-200zM400 1200v200h200v-200h-200zM400 1922v200h200v-200h-200zM600 0v200h200v-200h-200zM600 1200v200h200v-200h-200zM600 1522v200h200v-200h-200zM600 1722v200h200v-200h-200zM800 0v200h200v-200 h-200zM800 1200v200h200v-200h-200z" />
<glyph unicode="&#xd1;" d="M0 0v200h200v-200h-200zM0 200v200h200v-200h-200zM0 400v200h200v-200h-200zM0 600v200h200v-200h-200zM0 800v200h200v-200h-200zM0 1000v200h200v-200h-200zM0 1200v200h200v-200h-200zM0 1722v200h200v-200h-200zM200 800v200h200v-200h-200zM200 1922v200h200v-200 h-200zM400 600v200h200v-200h-200zM400 1722v200h200v-200h-200zM600 400v200h200v-200h-200zM600 1522v200h200v-200h-200zM800 0v200h200v-200h-200zM800 200v200h200v-200h-200zM800 400v200h200v-200h-200zM800 600v200h200v-200h-200zM800 800v200h200v-200h-200z M800 1000v200h200v-200h-200zM800 1200v200h200v-200h-200zM800 1722v200h200v-200h-200z" />
<glyph unicode="&#xd2;" d="M0 200v200h200v-200h-200zM0 400v200h200v-200h-200zM0 600v200h200v-200h-200zM0 800v200h200v-200h-200zM0 1000v200h200v-200h-200zM200 0v200h200v-200h-200zM200 1200v200h200v-200h-200zM200 1722v200h200v-200h-200zM400 0v200h200v-200h-200zM400 1200v200h200 v-200h-200zM400 1522v200h200v-200h-200zM600 0v200h200v-200h-200zM600 1200v200h200v-200h-200zM800 200v200h200v-200h-200zM800 400v200h200v-200h-200zM800 600v200h200v-200h-200zM800 800v200h200v-200h-200zM800 1000v200h200v-200h-200z" />
<glyph unicode="&#xd4;" d="M0 200v200h200v-200h-200zM0 400v200h200v-200h-200zM0 600v200h200v-200h-200zM0 800v200h200v-200h-200zM0 1000v200h200v-200h-200zM200 0v200h200v-200h-200zM200 1200v200h200v-200h-200zM200 1522v200h200v-200h-200zM200 1722v200h200v-200h-200zM400 0v200h200 v-200h-200zM400 1200v200h200v-200h-200zM400 1922v200h200v-200h-200zM600 0v200h200v-200h-200zM600 1200v200h200v-200h-200zM600 1522v200h200v-200h-200zM600 1722v200h200v-200h-200zM800 200v200h200v-200h-200zM800 400v200h200v-200h-200zM800 600v200h200v-200 h-200zM800 800v200h200v-200h-200zM800 1000v200h200v-200h-200z" />
<glyph unicode="&#xd5;" d="M0 200v200h200v-200h-200zM0 400v200h200v-200h-200zM0 600v200h200v-200h-200zM0 800v200h200v-200h-200zM0 1000v200h200v-200h-200zM0 1722v200h200v-200h-200zM200 0v200h200v-200h-200zM200 1200v200h200v-200h-200zM200 1922v200h200v-200h-200zM400 0v200h200 v-200h-200zM400 1200v200h200v-200h-200zM400 1722v200h200v-200h-200zM600 0v200h200v-200h-200zM600 1200v200h200v-200h-200zM600 1522v200h200v-200h-200zM800 200v200h200v-200h-200zM800 400v200h200v-200h-200zM800 600v200h200v-200h-200zM800 800v200h200v-200 h-200zM800 1000v200h200v-200h-200zM800 1722v200h200v-200h-200z" />
<glyph unicode="&#xd9;" d="M0 200v200h200v-200h-200zM0 400v200h200v-200h-200zM0 600v200h200v-200h-200zM0 800v200h200v-200h-200zM0 1000v200h200v-200h-200zM0 1200v200h200v-200h-200zM200 0v200h200v-200h-200zM200 1722v200h200v-200h-200zM400 0v200h200v-200h-200zM400 1522v200h200 v-200h-200zM600 0v200h200v-200h-200zM800 200v200h200v-200h-200zM800 400v200h200v-200h-200zM800 600v200h200v-200h-200zM800 800v200h200v-200h-200zM800 1000v200h200v-200h-200zM800 1200v200h200v-200h-200z" />
<glyph unicode="&#xdb;" d="M0 200v200h200v-200h-200zM0 400v200h200v-200h-200zM0 600v200h200v-200h-200zM0 800v200h200v-200h-200zM0 1000v200h200v-200h-200zM0 1200v200h200v-200h-200zM200 0v200h200v-200h-200zM200 1522v200h200v-200h-200zM200 1722v200h200v-200h-200zM400 0v200h200 v-200h-200zM400 1922v200h200v-200h-200zM600 0v200h200v-200h-200zM600 1522v200h200v-200h-200zM600 1722v200h200v-200h-200zM800 200v200h200v-200h-200zM800 400v200h200v-200h-200zM800 600v200h200v-200h-200zM800 800v200h200v-200h-200zM800 1000v200h200v-200 h-200zM800 1200v200h200v-200h-200z" />
<glyph unicode="&#xe0;" d="M0 200v200h200v-200h-200zM0 400v200h200v-200h-200zM0 600v200h200v-200h-200zM200 0v200h200v-200h-200zM200 800v200h200v-200h-200zM200 1322v200h200v-200h-200zM400 0v200h200v-200h-200zM400 800v200h200v-200h-200zM400 1122v200h200v-200h-200zM600 0v200h200 v-200h-200zM600 200v200h200v-200h-200zM600 400v200h200v-200h-200zM600 600v200h200v-200h-200zM600 800v200h200v-200h-200zM800 0v200h200v-200h-200z" />
<glyph unicode="&#xe2;" d="M0 200v200h200v-200h-200zM0 400v200h200v-200h-200zM0 600v200h200v-200h-200zM200 0v200h200v-200h-200zM200 800v200h200v-200h-200zM200 1122v200h200v-200h-200zM200 1322v200h200v-200h-200zM400 0v200h200v-200h-200zM400 800v200h200v-200h-200zM400 1522v200 h200v-200h-200zM600 0v200h200v-200h-200zM600 200v200h200v-200h-200zM600 400v200h200v-200h-200zM600 600v200h200v-200h-200zM600 800v200h200v-200h-200zM600 1122v200h200v-200h-200zM600 1322v200h200v-200h-200zM800 0v200h200v-200h-200z" />
<glyph unicode="&#xe3;" d="M0 200v200h200v-200h-200zM0 400v200h200v-200h-200zM0 600v200h200v-200h-200zM0 1322v200h200v-200h-200zM200 0v200h200v-200h-200zM200 800v200h200v-200h-200zM200 1522v200h200v-200h-200zM400 0v200h200v-200h-200zM400 800v200h200v-200h-200zM400 1322v200h200 v-200h-200zM600 0v200h200v-200h-200zM600 200v200h200v-200h-200zM600 400v200h200v-200h-200zM600 600v200h200v-200h-200zM600 800v200h200v-200h-200zM600 1122v200h200v-200h-200zM800 0v200h200v-200h-200zM800 1322v200h200v-200h-200z" />
<glyph unicode="&#xe8;" d="M0 200v200h200v-200h-200zM0 400v200h200v-200h-200zM0 600v200h200v-200h-200zM200 0v200h200v-200h-200zM200 400v200h200v-200h-200zM200 800v200h200v-200h-200zM200 1322v200h200v-200h-200zM400 0v200h200v-200h-200zM400 400v200h200v-200h-200zM400 800v200h200 v-200h-200zM400 1122v200h200v-200h-200zM600 0v200h200v-200h-200zM600 400v200h200v-200h-200zM600 800v200h200v-200h-200zM800 0v200h200v-200h-200zM800 400v200h200v-200h-200zM800 600v200h200v-200h-200z" />
<glyph unicode="&#xea;" d="M0 200v200h200v-200h-200zM0 400v200h200v-200h-200zM0 600v200h200v-200h-200zM200 0v200h200v-200h-200zM200 400v200h200v-200h-200zM200 800v200h200v-200h-200zM200 1122v200h200v-200h-200zM200 1322v200h200v-200h-200zM400 0v200h200v-200h-200zM400 400v200h200 v-200h-200zM400 800v200h200v-200h-200zM400 1522v200h200v-200h-200zM600 0v200h200v-200h-200zM600 400v200h200v-200h-200zM600 800v200h200v-200h-200zM600 1122v200h200v-200h-200zM600 1322v200h200v-200h-200zM800 0v200h200v-200h-200zM800 400v200h200v-200h-200z M800 600v200h200v-200h-200z" />
<glyph unicode="&#xec;" horiz-adv-x="820" d="M0 0v200h200v-200h-200zM0 800v200h200v-200h-200zM0 1722v200h200v-200h-200zM200 0v200h200v-200h-200zM200 200v200h200v-200h-200zM200 400v200h200v-200h-200zM200 600v200h200v-200h-200zM200 800v200h200v-200h-200zM200 1200v200h200v-200h-200zM200 1522v200 h200v-200h-200zM400 0v200h200v-200h-200z" />
<glyph unicode="&#xee;" horiz-adv-x="820" d="M0 0v200h200v-200h-200zM0 800v200h200v-200h-200zM0 1522v200h200v-200h-200zM0 1722v200h200v-200h-200zM200 0v200h200v-200h-200zM200 200v200h200v-200h-200zM200 400v200h200v-200h-200zM200 600v200h200v-200h-200zM200 800v200h200v-200h-200zM200 1200v200h200 v-200h-200zM200 1922v200h200v-200h-200zM400 0v200h200v-200h-200zM400 1522v200h200v-200h-200zM400 1722v200h200v-200h-200z" />
<glyph unicode="&#xf1;" horiz-adv-x="1024" d="M-100 1322v200h200v-200h-200zM0 0v200h200v-200h-200zM0 200v200h200v-200h-200zM0 400v200h200v-200h-200zM0 600v200h200v-200h-200zM0 800v200h200v-200h-200zM100 1522v200h200v-200h-200zM200 800v200h200v-200h-200zM300 1322v200h200v-200h-200zM400 800v200h200 v-200h-200zM500 1122v200h200v-200h-200zM600 0v200h200v-200h-200zM600 200v200h200v-200h-200zM600 400v200h200v-200h-200zM600 600v200h200v-200h-200zM700 1322v200h200v-200h-200z" />
<glyph unicode="&#xf2;" d="M0 200v200h200v-200h-200zM0 400v200h200v-200h-200zM0 600v200h200v-200h-200zM200 0v200h200v-200h-200zM200 800v200h200v-200h-200zM200 1322v200h200v-200h-200zM400 0v200h200v-200h-200zM400 800v200h200v-200h-200zM400 1122v200h200v-200h-200zM600 0v200h200 v-200h-200zM600 800v200h200v-200h-200zM800 200v200h200v-200h-200zM800 400v200h200v-200h-200zM800 600v200h200v-200h-200z" />
<glyph unicode="&#xf4;" d="M0 200v200h200v-200h-200zM0 400v200h200v-200h-200zM0 600v200h200v-200h-200zM200 0v200h200v-200h-200zM200 800v200h200v-200h-200zM200 1122v200h200v-200h-200zM200 1322v200h200v-200h-200zM400 0v200h200v-200h-200zM400 800v200h200v-200h-200zM400 1522v200 h200v-200h-200zM600 0v200h200v-200h-200zM600 800v200h200v-200h-200zM600 1122v200h200v-200h-200zM600 1322v200h200v-200h-200zM800 200v200h200v-200h-200zM800 400v200h200v-200h-200zM800 600v200h200v-200h-200z" />
<glyph unicode="&#xf5;" d="M0 200v200h200v-200h-200zM0 400v200h200v-200h-200zM0 600v200h200v-200h-200zM0 1322v200h200v-200h-200zM200 0v200h200v-200h-200zM200 800v200h200v-200h-200zM200 1522v200h200v-200h-200zM400 0v200h200v-200h-200zM400 800v200h200v-200h-200zM400 1322v200h200 v-200h-200zM600 0v200h200v-200h-200zM600 800v200h200v-200h-200zM600 1122v200h200v-200h-200zM800 200v200h200v-200h-200zM800 400v200h200v-200h-200zM800 600v200h200v-200h-200zM800 1322v200h200v-200h-200z" />
<glyph unicode="&#xf9;" horiz-adv-x="1024" d="M0 200v200h200v-200h-200zM0 400v200h200v-200h-200zM0 600v200h200v-200h-200zM0 800v200h200v-200h-200zM100 1322v200h200v-200h-200zM200 0v200h200v-200h-200zM300 1122v200h200v-200h-200zM400 0v200h200v-200h-200zM600 0v200h200v-200h-200zM600 200v200h200 v-200h-200zM600 400v200h200v-200h-200zM600 600v200h200v-200h-200zM600 800v200h200v-200h-200z" />
<glyph unicode="&#xfb;" horiz-adv-x="1024" d="M0 200v200h200v-200h-200zM0 400v200h200v-200h-200zM0 600v200h200v-200h-200zM0 800v200h200v-200h-200zM100 1122v200h200v-200h-200zM100 1322v200h200v-200h-200zM200 0v200h200v-200h-200zM300 1522v200h200v-200h-200zM400 0v200h200v-200h-200zM500 1122v200h200 v-200h-200zM500 1322v200h200v-200h-200zM600 0v200h200v-200h-200zM600 200v200h200v-200h-200zM600 400v200h200v-200h-200zM600 600v200h200v-200h-200zM600 800v200h200v-200h-200z" />
<glyph unicode="&#x152;" horiz-adv-x="2456" d="M0 200v200h200v-200h-200zM0 400v200h200v-200h-200zM0 600v200h200v-200h-200zM0 800v200h200v-200h-200zM0 1000v200h200v-200h-200zM200 0v200h200v-200h-200zM200 1200v200h200v-200h-200zM400 0v200h200v-200h-200zM400 1200v200h200v-200h-200zM600 0v200h200v-200 h-200zM600 1200v200h200v-200h-200zM800 200v200h200v-200h-200zM800 400v200h200v-200h-200zM800 600v200h200v-200h-200zM800 800v200h200v-200h-200zM800 1000v200h200v-200h-200zM1228 0v200h200v-200h-200zM1228 200v200h200v-200h-200zM1228 400v200h200v-200h-200z M1228 600v200h200v-200h-200zM1228 800v200h200v-200h-200zM1228 1000v200h200v-200h-200zM1228 1200v200h200v-200h-200zM1428 0v200h200v-200h-200zM1428 600v200h200v-200h-200zM1428 1200v200h200v-200h-200zM1628 0v200h200v-200h-200zM1628 600v200h200v-200h-200z M1628 1200v200h200v-200h-200zM1828 0v200h200v-200h-200zM1828 600v200h200v-200h-200zM1828 1200v200h200v-200h-200zM2028 0v200h200v-200h-200zM2028 1200v200h200v-200h-200z" />
<glyph unicode="&#x153;" horiz-adv-x="2456" d="M0 200v200h200v-200h-200zM0 400v200h200v-200h-200zM0 600v200h200v-200h-200zM200 0v200h200v-200h-200zM200 800v200h200v-200h-200zM400 0v200h200v-200h-200zM400 800v200h200v-200h-200zM600 0v200h200v-200h-200zM600 800v200h200v-200h-200zM800 200v200h200 v-200h-200zM800 400v200h200v-200h-200zM800 600v200h200v-200h-200zM1228 200v200h200v-200h-200zM1228 400v200h200v-200h-200zM1228 600v200h200v-200h-200zM1428 0v200h200v-200h-200zM1428 400v200h200v-200h-200zM1428 800v200h200v-200h-200zM1628 0v200h200v-200 h-200zM1628 400v200h200v-200h-200zM1628 800v200h200v-200h-200zM1828 0v200h200v-200h-200zM1828 400v200h200v-200h-200zM1828 800v200h200v-200h-200zM2028 0v200h200v-200h-200zM2028 400v200h200v-200h-200zM2028 600v200h200v-200h-200z" />
<glyph unicode="&#x2c6;" horiz-adv-x="820" d="M0 1000v200h200v-200h-200zM0 1200v200h200v-200h-200zM200 1400v200h200v-200h-200zM400 1000v200h200v-200h-200zM400 1200v200h200v-200h-200z" />
<glyph unicode="&#x2dc;" horiz-adv-x="820" d="M-500 322v200h200v-200h-200zM-300 522v200h200v-200h-200zM-100 322v200h200v-200h-200zM100 122v200h200v-200h-200zM300 322v200h200v-200h-200z" />
<glyph unicode="&#x2013;" horiz-adv-x="1024" d="M0 600v200h800v-200h-800z" />
<glyph unicode="&#x2014;" horiz-adv-x="2048" d="M0 600v200h1824v-200h-1824z" />
<glyph unicode="&#x2018;" horiz-adv-x="614" d="M0 1200v200h200v-200h-200zM200 1000v200h200v-200h-200z" />
<glyph unicode="&#x2019;" horiz-adv-x="410" d="M0 1000v200h200v-200h-200zM0 1200v200h200v-200h-200z" />
<glyph unicode="&#x201c;" horiz-adv-x="820" d="M0 1000v200h200v-200h-200zM0 1200v200h200v-200h-200zM400 1000v200h200v-200h-200zM400 1200v200h200v-200h-200z" />
<glyph unicode="&#x201d;" horiz-adv-x="820" d="M0 1000v200h200v-200h-200zM0 1200v200h200v-200h-200zM400 1000v200h200v-200h-200zM400 1200v200h200v-200h-200z" />
<glyph unicode="&#x2026;" horiz-adv-x="1230" d="M0 0v200h200v-200h-200zM410 0v200h200v-200h-200zM820 0v200h200v-200h-200z" />
<glyph unicode="&#x2039;" horiz-adv-x="1024" d="M0 600v200h200v-200h-200zM200 400v200h200v-200h-200zM200 800v200h200v-200h-200zM400 200v200h200v-200h-200zM400 1000v200h200v-200h-200zM600 0v200h200v-200h-200zM600 1200v200h200v-200h-200z" />
<glyph unicode="&#x203a;" horiz-adv-x="1024" d="M0 0v200h200v-200h-200zM0 1200v200h200v-200h-200zM200 200v200h200v-200h-200zM200 1000v200h200v-200h-200zM400 400v200h200v-200h-200zM400 800v200h200v-200h-200zM600 600v200h200v-200h-200z" />
<glyph unicode="&#x2122;" horiz-adv-x="2456" d="M0 1200v200h200v-200h-200zM200 1200v200h200v-200h-200zM400 0v200h200v-200h-200zM400 200v200h200v-200h-200zM400 400v200h200v-200h-200zM400 600v200h200v-200h-200zM400 800v200h200v-200h-200zM400 1000v200h200v-200h-200zM400 1200v200h200v-200h-200z M600 1200v200h200v-200h-200zM800 1200v200h200v-200h-200zM1228 0v200h200v-200h-200zM1228 200v200h200v-200h-200zM1228 400v200h200v-200h-200zM1228 600v200h200v-200h-200zM1228 800v200h200v-200h-200zM1228 1000v200h200v-200h-200zM1228 1200v200h200v-200h-200z M1428 1000v200h200v-200h-200zM1628 800v200h200v-200h-200zM1828 1000v200h200v-200h-200zM2028 0v200h200v-200h-200zM2028 200v200h200v-200h-200zM2028 400v200h200v-200h-200zM2028 600v200h200v-200h-200zM2028 800v200h200v-200h-200zM2028 1000v200h200v-200h-200z M2028 1200v200h200v-200h-200z" />
<glyph unicode="&#xe000;" horiz-adv-x="1000" d="M0 1000h1000v-1000h-1000v1000z" />
<glyph unicode="&#xfb01;" horiz-adv-x="1844" d="M0 0h200v-200h-200v200zM0 800v200h200v-200h-200zM200 0v200h200v-200h-200zM200 200v200h200v-200h-200zM200 400v200h200v-200h-200zM200 600v200h200v-200h-200zM200 800v200h200v-200h-200zM200 1000v200h200v-200h-200zM200 1200v200h200v-200h-200zM400 800v200 h200v-200h-200zM400 1400v200h200v-200h-200zM600 800v200h200v-200h-200zM600 1400v200h200v-200h-200zM1024 0v200h200v-200h-200zM1024 800v200h200v-200h-200zM1224 0v200h200v-200h-200zM1224 200v200h200v-200h-200zM1224 400v200h200v-200h-200zM1224 600v200h200 v-200h-200zM1224 800v200h200v-200h-200zM1224 1200v200h200v-200h-200zM1424 0v200h200v-200h-200z" />
<glyph unicode="&#xfb02;" horiz-adv-x="1434" d="M0 0h200v-200h-200v200zM0 800v200h200v-200h-200zM200 0v200h200v-200h-200zM200 200v200h200v-200h-200zM200 400v200h200v-200h-200zM200 600v200h200v-200h-200zM200 800v200h200v-200h-200zM200 1000v200h200v-200h-200zM200 1200v200h200v-200h-200zM400 800v200 h200v-200h-200zM400 1400v200h200v-200h-200zM600 800v200h200v-200h-200zM600 1400v200h200v-200h-200zM1024 0v200h200v-200h-200zM1024 200v200h200v-200h-200zM1024 400v200h200v-200h-200zM1024 600v200h200v-200h-200zM1024 800v200h200v-200h-200zM1024 1000v200h200 v-200h-200zM1024 1200v200h200v-200h-200z" />
<glyph unicode="&#xfb03;" horiz-adv-x="2868" d="M0 0h200v-200h-200v200zM0 800v200h200v-200h-200zM200 0v200h200v-200h-200zM200 200v200h200v-200h-200zM200 400v200h200v-200h-200zM200 600v200h200v-200h-200zM200 800v200h200v-200h-200zM200 1000v200h200v-200h-200zM200 1200v200h200v-200h-200zM400 800v200 h200v-200h-200zM400 1400v200h200v-200h-200zM600 800v200h200v-200h-200zM600 1400v200h200v-200h-200zM1024 0h200v-200h-200v200zM1024 800v200h200v-200h-200zM1224 0v200h200v-200h-200zM1224 200v200h200v-200h-200zM1224 400v200h200v-200h-200zM1224 600v200h200 v-200h-200zM1224 800v200h200v-200h-200zM1224 1000v200h200v-200h-200zM1224 1200v200h200v-200h-200zM1424 800v200h200v-200h-200zM1424 1400v200h200v-200h-200zM1624 800v200h200v-200h-200zM1624 1400v200h200v-200h-200zM2048 0v200h200v-200h-200zM2048 800v200h200 v-200h-200zM2248 0v200h200v-200h-200zM2248 200v200h200v-200h-200zM2248 400v200h200v-200h-200zM2248 600v200h200v-200h-200zM2248 800v200h200v-200h-200zM2248 1200v200h200v-200h-200zM2448 0v200h200v-200h-200z" />
<glyph unicode="&#xfb04;" horiz-adv-x="2458" d="M0 0h200v-200h-200v200zM0 800v200h200v-200h-200zM200 0v200h200v-200h-200zM200 200v200h200v-200h-200zM200 400v200h200v-200h-200zM200 600v200h200v-200h-200zM200 800v200h200v-200h-200zM200 1000v200h200v-200h-200zM200 1200v200h200v-200h-200zM400 800v200 h200v-200h-200zM400 1400v200h200v-200h-200zM600 800v200h200v-200h-200zM600 1400v200h200v-200h-200zM1024 0h200v-200h-200v200zM1024 800v200h200v-200h-200zM1224 0v200h200v-200h-200zM1224 200v200h200v-200h-200zM1224 400v200h200v-200h-200zM1224 600v200h200 v-200h-200zM1224 800v200h200v-200h-200zM1224 1000v200h200v-200h-200zM1224 1200v200h200v-200h-200zM1424 800v200h200v-200h-200zM1424 1400v200h200v-200h-200zM1624 800v200h200v-200h-200zM1624 1400v200h200v-200h-200zM2048 0v200h200v-200h-200zM2048 200v200h200 v-200h-200zM2048 400v200h200v-200h-200zM2048 600v200h200v-200h-200zM2048 800v200h200v-200h-200zM2048 1000v200h200v-200h-200zM2048 1200v200h200v-200h-200z" />
</font>
</defs>
</svg>
