<?xml version="1.0" standalone="no"?>
<!DOCTYPE svg PUBLIC "-//W3C//DTD SVG 1.1//EN" "http://www.w3.org/Graphics/SVG/1.1/DTD/svg11.dtd" >
<svg xmlns="http://www.w3.org/2000/svg">
<metadata>
This is a custom SVG webfont generated by Font Squirrel.
Copyright   : Copyright c homebrainbox 2001 All rights reserved
Designer    : Marc mieps Misman
</metadata>
<defs>
<font id="AdvoCutRegular" horiz-adv-x="1024" >
<font-face units-per-em="2048" ascent="1638" descent="-410" />
<missing-glyph horiz-adv-x="819" />
<glyph unicode=" "  horiz-adv-x="819" />
<glyph unicode="&#x09;" horiz-adv-x="819" />
<glyph unicode="&#xa0;" horiz-adv-x="819" />
<glyph unicode="!" horiz-adv-x="409" d="M0 0h205v205h-205v-205zM0 410h205v1024h-205v-1024z" />
<glyph unicode="&#x22;" horiz-adv-x="819" d="M0 1024h205v410h-205v-410zM410 1024h204v410h-204v-410z" />
<glyph unicode="#" horiz-adv-x="208" />
<glyph unicode="$" d="M0 205h205v-410h409v410h-409v205h-205v-205zM0 819h205v-205h409v-409h205v409h-205v205h-409v410h-205v-410zM205 1229h409v-205h205v205h-205v409h-409v-409z" />
<glyph unicode="%" horiz-adv-x="819" d="M0 0h205v410h-205v-410zM0 1229h205v205h-205v-205zM205 410h205v614h-205v-614zM410 0h204v205h-204v-205zM410 1024h204v410h-204v-410z" />
<glyph unicode="&#x26;" d="M0 205h205v-205h205v205h-205v409h-205v-409zM0 819h205v-205h205v-409h204v-205h205v205h-205v205h205v204h-205h-204v205h-205v410h-205v-410zM205 1229h205v-410h204v410h-204v205h-205v-205z" />
<glyph unicode="'" horiz-adv-x="409" d="M0 1024v410h205v-410h-205z" />
<glyph unicode="(" horiz-adv-x="614" d="M0 205h205v-205h205v205h-205v1024h-205v-1024zM205 1229h205v205h-205v-205z" />
<glyph unicode=")" horiz-adv-x="614" d="M0 0v205h205v1024h205v-1024h-205v-205h-205zM0 1229v205h205v-205h-205z" />
<glyph unicode="*" horiz-adv-x="819" d="M0 614h205v205h-205v-205zM0 1024h205v-205h205v-205h204v205h-204v205h-205v205h-205v-205zM410 1024h204v205h-204v-205z" />
<glyph unicode="+" horiz-adv-x="819" d="M0 614h205v-204h205v204h204v205h-204v205h-205v-205h-205v-205z" />
<glyph unicode="," horiz-adv-x="409" d="M0 -205h205v410h-205v-410z" />
<glyph unicode="-" horiz-adv-x="614" d="M0 614h410v205h-410v-205z" />
<glyph unicode="." horiz-adv-x="409" d="M0 0h205v205h-205v-205z" />
<glyph unicode="/" horiz-adv-x="819" d="M0 0h205v410h-205v-410zM205 410h205v614h-205v-614zM410 1024h204v410h-204v-410z" />
<glyph unicode="0" d="M0 205h205v-205h409v205h-409v1024h-205v-1024zM205 1229h409v-1024h205v1024h-205v205h-409v-205z" />
<glyph unicode="1" horiz-adv-x="614" d="M0 1024h205v-1024h205v1434h-205v-205h-205v-205z" />
<glyph unicode="2" d="M0 0h819v205h-614v205h-205v-410zM0 1024h205v205h-205v-205zM205 410h205v204h-205v-204zM205 1229h409v-410h205v410h-205v205h-409v-205zM410 614h204v205h-204v-205z" />
<glyph unicode="3" d="M0 205h205v-205h409v205h-409v205h-205v-205zM0 1024h205v205h-205v-205zM205 1229h409v-410h205v410h-205v205h-409v-205zM410 614h204v-409h205v409h-205v205h-204v-205z" />
<glyph unicode="4" d="M0 614h410v-614h204v614h205v205h-205v410h-204v-410h-205v615h-205v-820z" />
<glyph unicode="5" d="M0 205h205v-205h409v205h-409v205h-205v-205zM0 614h614v-409h205v409h-205v205h-409v410h614v205h-819v-820z" />
<glyph unicode="6" d="M0 205h205v-205h409v205h-409v409h409v-409h205v409h-205v205h-409v410h-205v-1024zM205 1229h409v-205h205v205h-205v205h-409v-205z" />
<glyph unicode="7" d="M0 1229h614v-205h205v410h-819v-205zM205 0h205v819h-205v-819zM410 819h204v205h-204v-205z" />
<glyph unicode="8" d="M0 205h205v-205h409v205h-409v409h-205v-409zM0 819h205v-205h409v-409h205v409h-205v205h-409v410h-205v-410zM205 1229h409v-410h205v410h-205v205h-409v-205z" />
<glyph unicode="9" d="M0 205h205v-205h409v205h-409v205h-205v-205zM0 819h205v-205h409v-409h205v1024h-205v205h-409v-205h409v-410h-409v410h-205v-410z" />
<glyph unicode=":" horiz-adv-x="409" d="M0 0h205v205h-205v-205zM0 410h205v204h-205v-204z" />
<glyph unicode=";" horiz-adv-x="409" d="M0 -205h205v410h-205v-410zM0 410h205v204h-205v-204z" />
<glyph unicode="&#x37e;" horiz-adv-x="409" d="M0 -205h205v410h-205v-410zM0 410h205v204h-205v-204z" />
<glyph unicode="&#x3c;" d="M0 614v205h205v205h205v205h204v205h205v-205h-205v-205h-204v-205h-205v-205h-205zM205 410v204h205v-204h-205zM410 205v205h204v-205h-204zM614 0v205h205v-205h-205z" />
<glyph unicode="=" horiz-adv-x="614" d="M0 410h410v204h-410v-204zM0 819h410v205h-410v-205z" />
<glyph unicode="&#x3e;" d="M0 0h205v205h-205v-205zM0 1229h205v-205h205v-205h204v-205h205v205h-205v205h-204v205h-205v205h-205v-205zM205 205h205v205h-205v-205zM410 410h204v204h-204v-204z" />
<glyph unicode="?" d="M0 1024h205v205h-205v-205zM205 0h205v205h-205v-205zM205 410h205v204h-205v-204zM205 1229h409v-410h-204v-205h223v205h186v410h-205v205h-409v-205z" />
<glyph unicode="@" horiz-adv-x="1228" d="M0 205h205v1024h-205v-1024zM205 0h614v205h-614v-205zM205 1229h614v-205h-409v-614h614v819h-205v205h-614v-205zM614 614v205h205v-205h-205z" />
<glyph unicode="A" d="M0 0h205v410h409v-410h205v1229h-205v205h-409v-205h409v-615h-409v615h-205v-1229z" />
<glyph unicode="B" d="M0 0h614v205h205v409h-205v205h-409v410h409v-410h205v410h-205v205h-614v-1434zM205 205v409h409v-409h-409z" />
<glyph unicode="C" d="M0 205h205v-205h409v205h-409v1024h-205v-1024zM205 1229h409v-205h205v205h-205v205h-409v-205zM614 205h205v205h-205v-205z" />
<glyph unicode="D" d="M0 0h614v205h205v1024h-205v205h-614v-1434zM205 205v1024h409v-1024h-409z" />
<glyph unicode="E" d="M0 0h819v205h-614v409h409v205h-409v410h614v205h-819v-1434z" />
<glyph unicode="F" d="M0 0h205v614h409v205h-409v410h614v205h-819v-1434z" />
<glyph unicode="G" d="M0 205h205v-205h409v205h-409v1024h-205v-1024zM205 1229h409v-205h205v205h-205v205h-409v-205zM410 410h204v-205h205v409h-409v-204z" />
<glyph unicode="H" d="M0 0h205v614h409v-614h205v1434h-205v-615h-409v615h-205v-1434z" />
<glyph unicode="I" horiz-adv-x="819" d="M0 0h614v205h-204v1024h204v205h-614v-205h205v-1024h-205v-205z" />
<glyph unicode="J" d="M0 205h205v-205h205v205h-205v205h-205v-205zM205 1229h205v-1024h204v1024h205v205h-614v-205z" />
<glyph unicode="K" d="M0 0h205v410h205v-205h204v-205h205v205h-205v205h-204v204h-205v205h205v205h-205v410h-205v-1434zM410 1024h204v184h-204v-184zM614 1229h205v205h-205v-205z" />
<glyph unicode="L" d="M0 0h819v205h-614v1229h-205v-1434z" />
<glyph unicode="M" horiz-adv-x="1228" d="M0 0h205v1024h205v-205h204v205h-204v205h-205v205h-205v-1434zM614 1024h205v-1024h205v1434h-205v-205h-205v-205z" />
<glyph unicode="N" d="M0 0h205v1024h205v-205h204v-819h205v1434h-205v-410h-204v205h-205v205h-205v-1434z" />
<glyph unicode="O" d="M0 205h205v-205h409v205h-409v1024h-205v-1024zM205 1229h409v-1024h205v1024h-205v205h-409v-205z" />
<glyph unicode="P" d="M0 0h205v614h409v205h205v410h-205v205h-614v-1434zM205 819v410h409v-410h-409z" />
<glyph unicode="Q" horiz-adv-x="1228" d="M0 205h205v-205h409v205h-409v1024h-205v-1024zM205 1229h409v-615h-204v-204h204v-205h205v-205h205v205h-205v1024h-205v205h-409v-205z" />
<glyph unicode="R" d="M0 0h205v614h409v-614h205v614h-205v205h205v410h-205v205h-614v-1434zM205 819v410h409v-410h-409z" />
<glyph unicode="S" d="M0 205h205v-205h409v205h-409v205h-205v-205zM0 819h205v-205h409v-409h205v409h-205v205h-409v410h-205v-410zM205 1229h409v-205h205v205h-205v205h-409v-205z" />
<glyph unicode="T" horiz-adv-x="1228" d="M0 1229h410v-1229h204v1229h410v205h-1024v-205z" />
<glyph unicode="U" d="M0 205h205v-205h409v205h-409v1229h-205v-1229zM614 205h205v1229h-205v-1229z" />
<glyph unicode="V" d="M0 205h205v-205h205v205h-205v1229h-205v-1229zM410 205h204v205h-204v-205zM614 410h205v1024h-205v-1024z" />
<glyph unicode="W" horiz-adv-x="1228" d="M0 205h205v-205h205v205h-205v1229h-205v-1229zM410 205h204v-205h205v205h-205v205h-204v-205zM819 205h205v1229h-205v-1229z" />
<glyph unicode="X" d="M0 0h205v614h-205v-614zM0 819h205v-205h409v-614h205v614h-205v205h-409v615h-205v-615zM614 819h205v615h-205v-615z" />
<glyph unicode="Y" horiz-adv-x="1228" d="M0 1024h205v-205h205v-819h204v819h-204v205h-205v410h-205v-410zM614 819h205v205h-205v-205zM819 1024h205v410h-205v-410z" />
<glyph unicode="Z" d="M0 0h819v205h-614v409h-205v-614zM0 1229h614v-410h205v615h-819v-205zM205 614h409v205h-409v-205z" />
<glyph unicode="[" horiz-adv-x="614" d="M0 0h410v205h-205v1024h205v205h-410v-1434z" />
<glyph unicode="\" horiz-adv-x="819" d="M0 1024v410h205v-410h-205zM205 410v614h205v-614h-205zM410 0v410h204v-410h-204z" />
<glyph unicode="]" horiz-adv-x="614" d="M0 0v205h205v1024h-205v205h410v-1434h-410z" />
<glyph unicode="^" d="M0 1434h205v204h-205v-204zM205 1638h409v-204h205v204h-205v205h-409v-205z" />
<glyph unicode="_" d="M0 0h1024v205h-1024v-205z" />
<glyph unicode="`" d="M205 1638h205v-204h204v204h-204v205h-205v-205z" />
<glyph unicode="a" d="M0 205h205v-205h614v819h-205v205h-409v-205h409v-205h-409v-204h409v-205h-409v205h-205v-205z" />
<glyph unicode="b" d="M0 0h614v205h205v614h-205v205h-409v410h-205v-1434zM205 205v614h409v-614h-409z" />
<glyph unicode="c" d="M0 205h205v-205h409v205h-409v614h-205v-614zM205 819h409v-205h205v205h-205v205h-409v-205zM614 205h205v205h-205v-205z" />
<glyph unicode="d" d="M0 205v614h205v205h409v410h205v-1434h-614v205h-205zM205 205h409v614h-409v-614z" />
<glyph unicode="e" d="M0 205h205v-205h409v205h-409v205h614v409h-205v205h-409v-205h409v-205h-409v205h-205v-614z" />
<glyph unicode="f" horiz-adv-x="817" d="M0 819h205v-819h205v819h204v205h-204v205h-205v-205h-205v-205zM410 1229h204v205h-204v-205z" />
<glyph unicode="g" d="M0 205h205v-205h409v-205h205v1024h-205v205h-409v-205h409v-614h-409v614h-205v-614zM205 -205v-205h409v205h-409z" />
<glyph unicode="h" d="M0 0h205v819h409v-819h205v819h-205v205h-409v410h-205v-1434z" />
<glyph unicode="i" horiz-adv-x="409" d="M0 0h205v1024h-205v-1024zM0 1229h205v205h-205v-205z" />
<glyph unicode="j" horiz-adv-x="409" d="M-205 -205v-205h205v205h-205zM0 -205h205v1229h-205v-1229zM0 1229h205v205h-205v-205z" />
<glyph unicode="k" d="M0 0h205v410h205v-205h204v-205h205v205h-205v205h-204v204h-205v820h-205v-1434zM410 614h204v205h-204v-205zM614 819h205v205h-205v-205z" />
<glyph unicode="l" horiz-adv-x="614" d="M0 205h205v-205h205v205h-205v1229h-205v-1229z" />
<glyph unicode="m" horiz-adv-x="1228" d="M0 0h205v819h205v-819h204v819h-204v205h-410v-1024zM614 819h205v205h-205v-205zM819 0h205v795h-205v-795z" />
<glyph unicode="n" d="M0 0h205v819h409v-819h205v819h-205v205h-614v-1024z" />
<glyph unicode="o" d="M0 205h205v-205h409v205h-409v614h-205v-614zM205 819h409v-614h205v614h-205v205h-409v-205z" />
<glyph unicode="p" d="M0 -410h205v410h409v205h205v614h-205v205h-614v-1434zM205 205v614h409v-614h-409z" />
<glyph unicode="q" d="M0 205v614h205v205h614v-1434h-205v410h-409v205h-205zM205 205h409v614h-409v-614z" />
<glyph unicode="r" d="M0 819h205v-819h205v819h-205v205h-205v-205zM410 819h204v-205h205v410h-409v-205z" />
<glyph unicode="s" d="M0 0h614v205h-614v-205zM0 614h205v-204h409v-205h205v205h-205v204h-409v205h-205v-205zM205 819h614v205h-614v-205z" />
<glyph unicode="t" horiz-adv-x="819" d="M0 819h205v-614h205v-205h204v205h-204v614h204v205h-204v410h-205v-410h-205v-205z" />
<glyph unicode="u" d="M0 205h205v-205h409v205h-409v819h-205v-819zM614 205h205v819h-205v-819z" />
<glyph unicode="v" d="M0 205h205v-205h205v205h-205v819h-205v-819zM410 205h204v205h-204v-205zM614 410h205v614h-205v-614z" />
<glyph unicode="w" horiz-adv-x="1228" d="M0 205h205v-205h205v205h-205v819h-205v-819zM410 205h204v-205h205v205h-205v205h-204v-205zM819 205h205v819h-205v-819z" />
<glyph unicode="x" d="M0 0h205v410h-205v-410zM0 614h205v-204h409v-410h205v410h-205v204h-409v410h-205v-410zM614 614h205v410h-205v-410z" />
<glyph unicode="y" horiz-adv-x="1228" d="M0 205h205v-205h409v-205h205v1229h-205v-819h-409v819h-205v-819zM205 -205v-205h409v205h-409z" />
<glyph unicode="z" d="M0 0h819v205h-614v205h-205v-410zM0 819h614v-205h205v410h-819v-205zM205 410h409v204h-409v-204z" />
<glyph unicode="|" horiz-adv-x="409" d="M0 0h205v1434h-205v-1434z" />
<glyph unicode="&#xa7;" d="M0 0h614v205h-614v-205zM0 614h205v-204h409v-205h205v614h-205v205h-409v205h-205v-615zM205 614v205h409v-205h-409zM205 1229h614v205h-614v-205z" />
<glyph unicode="&#xaa;" d="M0 205h205v-205h614v819h-205v205h-409v-205h409v-205h-409v-204h409v-205h-409v205h-205v-205z" />
<glyph unicode="&#xad;" horiz-adv-x="614" d="M0 614h410v205h-410v-205z" />
<glyph unicode="&#xb2;" d="M0 0h819v205h-614v205h-205v-410zM0 1024h205v205h-205v-205zM205 410h205v204h-205v-204zM205 1229h409v-410h205v410h-205v205h-409v-205zM410 614h204v205h-204v-205z" />
<glyph unicode="&#xb3;" d="M0 205h205v-205h409v205h-409v205h-205v-205zM0 1024h205v205h-205v-205zM205 1229h409v-410h205v410h-205v205h-409v-205zM410 614h204v-409h205v409h-205v205h-204v-205z" />
<glyph unicode="&#xb4;" d="M205 1434h205v204h-205v-204zM410 1638h204v205h-204v-205z" />
<glyph unicode="&#xb8;" d="M205 -205v-205h409v410h-204v-205h-205z" />
<glyph unicode="&#xb9;" horiz-adv-x="614" d="M0 1024h205v-1024h205v1434h-205v-205h-205v-205z" />
<glyph unicode="&#xba;" d="M0 205h205v-205h409v205h-409v614h-205v-614zM205 819h409v-614h205v614h-205v205h-409v-205z" />
<glyph unicode="&#xc0;" d="M103 1761h205v-204h204v204h-204v205h-205v-205zM0 0h205v410h409v-410h205v1229h-205v205h-409v-205h409v-615h-409v615h-205v-1229z" />
<glyph unicode="&#xc1;" d="M307 1557h205v204h-205v-204zM512 1761h204v205h-204v-205zM0 0h205v410h409v-410h205v1229h-205v205h-409v-205h409v-615h-409v615h-205v-1229z" />
<glyph unicode="&#xc2;" d="M0 1557h205v204h-205v-204zM205 1761h409v-204h205v204h-205v205h-409v-205zM0 0h205v410h409v-410h205v1229h-205v205h-409v-205h409v-615h-409v615h-205v-1229z" />
<glyph unicode="&#xc4;" d="M0 0h205v410h409v-410h205v1229h-205v205h-409v-205h409v-615h-409v615h-205v-1229zM0 1638h205v205h-205v-205zM614 1638h205v205h-205v-205z" />
<glyph unicode="&#xc7;" d="M103 -191v-205h409v410h-204v-205h-205zM0 205h205v-205h409v205h-409v1024h-205v-1024zM205 1229h409v-205h205v205h-205v205h-409v-205zM614 205h205v205h-205v-205z" />
<glyph unicode="&#xc8;" d="M103 1761h205v-204h204v204h-204v205h-205v-205zM0 0h819v205h-614v409h409v205h-409v410h614v205h-819v-1434z" />
<glyph unicode="&#xc9;" d="M307 1557h205v204h-205v-204zM512 1761h204v205h-204v-205zM0 0h819v205h-614v409h409v205h-409v410h614v205h-819v-1434z" />
<glyph unicode="&#xca;" d="M0 1557h205v204h-205v-204zM205 1761h409v-204h205v204h-205v205h-409v-205zM0 0h819v205h-614v409h409v205h-409v410h614v205h-819v-1434z" />
<glyph unicode="&#xcc;" horiz-adv-x="819" d="M0 1761h205v-204h204v204h-204v205h-205v-205zM0 0h614v205h-204v1024h204v205h-614v-205h205v-1024h-205v-205z" />
<glyph unicode="&#xcd;" horiz-adv-x="819" d="M205 1557h205v204h-205v-204zM410 1761h204v205h-204v-205zM0 0h614v205h-204v1024h204v205h-614v-205h205v-1024h-205v-205z" />
<glyph unicode="&#xce;" horiz-adv-x="819" d="M-102 1557h205v204h-205v-204zM103 1761h409v-204h205v204h-205v205h-409v-205zM0 0h614v205h-204v1024h204v205h-614v-205h205v-1024h-205v-205z" />
<glyph unicode="&#xd2;" d="M103 1761h205v-204h204v204h-204v205h-205v-205zM0 205h205v-205h409v205h-409v1024h-205v-1024zM205 1229h409v-1024h205v1024h-205v205h-409v-205z" />
<glyph unicode="&#xd3;" d="M307 1557h205v204h-205v-204zM512 1761h204v205h-204v-205zM0 205h205v-205h409v205h-409v1024h-205v-1024zM205 1229h409v-1024h205v1024h-205v205h-409v-205z" />
<glyph unicode="&#xd4;" d="M0 1557h205v204h-205v-204zM205 1761h409v-204h205v204h-205v205h-409v-205zM0 205h205v-205h409v205h-409v1024h-205v-1024zM205 1229h409v-1024h205v1024h-205v205h-409v-205z" />
<glyph unicode="&#xd6;" d="M0 205h205v-205h409v205h-409v1024h-205v-1024zM0 1638h205v205h-205v-205zM205 1229h409v-1024h205v1024h-205v205h-409v-205zM614 1638h205v205h-205v-205z" />
<glyph unicode="&#xd9;" d="M103 1761h205v-204h204v204h-204v205h-205v-205zM0 205h205v-205h409v205h-409v1229h-205v-1229zM614 205h205v1229h-205v-1229z" />
<glyph unicode="&#xda;" d="M307 1557h205v204h-205v-204zM512 1761h204v205h-204v-205zM0 205h205v-205h409v205h-409v1229h-205v-1229zM614 205h205v1229h-205v-1229z" />
<glyph unicode="&#xdb;" d="M0 1557h205v204h-205v-204zM205 1761h409v-204h205v204h-205v205h-409v-205zM0 205h205v-205h409v205h-409v1229h-205v-1229zM614 205h205v1229h-205v-1229z" />
<glyph unicode="&#xdc;" d="M0 205h205v-205h409v205h-409v1229h-205v-1229zM0 1638h205v205h-205v-205zM614 205h205v1229h-205v-1229zM614 1638h205v205h-205v-205z" />
<glyph unicode="&#xdd;" horiz-adv-x="1228" d="M410 1557h205v204h-205v-204zM615 1761h204v205h-204v-205zM0 1024h205v-205h205v-819h204v819h-204v205h-205v410h-205v-410zM614 819h205v205h-205v-205zM819 1024h205v410h-205v-410z" />
<glyph unicode="&#xdf;" d="M0 -205h205v1434h-205v-1434zM205 1229h409v205h-409v-205zM410 0h204v205h-204v-205zM410 614h204v205h-204v-205zM614 205h205v409h-205v-409zM614 819h205v410h-205v-410z" />
<glyph unicode="&#xe0;" d="M103 1351h205v-204h204v204h-204v205h-205v-205zM0 205h205v-205h614v819h-205v205h-409v-205h409v-205h-409v-204h409v-205h-409v205h-205v-205z" />
<glyph unicode="&#xe1;" d="M307 1147h205v204h-205v-204zM512 1351h204v205h-204v-205zM0 205h205v-205h614v819h-205v205h-409v-205h409v-205h-409v-204h409v-205h-409v205h-205v-205z" />
<glyph unicode="&#xe2;" d="M0 1147h205v204h-205v-204zM205 1351h409v-204h205v204h-205v205h-409v-205zM0 205h205v-205h614v819h-205v205h-409v-205h409v-205h-409v-204h409v-205h-409v205h-205v-205z" />
<glyph unicode="&#xe4;" d="M0 205h205v205h-205v-205zM0 1229h205v205h-205v-205zM205 0h614v819h-205v205h-409v-205h409v-205h-409v-204h409v-205h-409v-205zM614 1229h205v205h-205v-205z" />
<glyph unicode="&#xe7;" d="M103 -191v-205h409v410h-204v-205h-205zM0 205h205v-205h409v205h-409v614h-205v-614zM205 819h409v-205h205v205h-205v205h-409v-205zM614 205h205v205h-205v-205z" />
<glyph unicode="&#xe8;" d="M103 1351h205v-204h204v204h-204v205h-205v-205zM0 205h205v-205h409v205h-409v205h614v409h-205v205h-409v-205h409v-205h-409v205h-205v-614z" />
<glyph unicode="&#xe9;" d="M307 1147h205v204h-205v-204zM512 1351h204v205h-204v-205zM0 205h205v-205h409v205h-409v205h614v409h-205v205h-409v-205h409v-205h-409v205h-205v-614z" />
<glyph unicode="&#xea;" d="M0 1147h205v204h-205v-204zM205 1351h409v-204h205v204h-205v205h-409v-205zM0 205h205v-205h409v205h-409v205h614v409h-205v205h-409v-205h409v-205h-409v205h-205v-614z" />
<glyph unicode="&#xec;" horiz-adv-x="409" d="M-205 1761h205v-204h204v204h-204v205h-205v-205zM0 0h205v1024h-205v-1024zM0 1229h205v205h-205v-205z" />
<glyph unicode="&#xed;" horiz-adv-x="409" d="M0 1557h205v204h-205v-204zM205 1761h204v205h-204v-205zM0 0h205v1024h-205v-1024zM0 1229h205v205h-205v-205z" />
<glyph unicode="&#xee;" horiz-adv-x="409" d="M-307 1557h205v204h-205v-204zM-102 1761h409v-204h205v204h-205v205h-409v-205zM0 0h205v1024h-205v-1024zM0 1229h205v205h-205v-205z" />
<glyph unicode="&#xf2;" d="M103 1351h205v-204h204v204h-204v205h-205v-205zM0 205h205v-205h409v205h-409v614h-205v-614zM205 819h409v-614h205v614h-205v205h-409v-205z" />
<glyph unicode="&#xf3;" d="M307 1147h205v204h-205v-204zM512 1351h204v205h-204v-205zM0 205h205v-205h409v205h-409v614h-205v-614zM205 819h409v-614h205v614h-205v205h-409v-205z" />
<glyph unicode="&#xf4;" d="M0 1147h205v204h-205v-204zM205 1351h409v-204h205v204h-205v205h-409v-205zM0 205h205v-205h409v205h-409v614h-205v-614zM205 819h409v-614h205v614h-205v205h-409v-205z" />
<glyph unicode="&#xf6;" d="M0 205h205v-205h409v205h-409v614h-205v-614zM0 1229h205v205h-205v-205zM205 819h409v-614h205v614h-205v205h-409v-205zM614 1229h205v205h-205v-205z" />
<glyph unicode="&#xf9;" d="M103 1351h205v-204h204v204h-204v205h-205v-205zM0 205h205v-205h409v205h-409v819h-205v-819zM614 205h205v819h-205v-819z" />
<glyph unicode="&#xfa;" d="M307 1147h205v204h-205v-204zM512 1351h204v205h-204v-205zM0 205h205v-205h409v205h-409v819h-205v-819zM614 205h205v819h-205v-819z" />
<glyph unicode="&#xfb;" d="M0 1147h205v204h-205v-204zM205 1351h409v-204h205v204h-205v205h-409v-205zM0 205h205v-205h409v205h-409v819h-205v-819zM614 205h205v819h-205v-819z" />
<glyph unicode="&#xfc;" d="M0 205h205v-205h409v205h-409v819h-205v-819zM0 1229h205v205h-205v-205zM614 205h205v819h-205v-819zM614 1229h205v205h-205v-205z" />
<glyph unicode="&#xfd;" horiz-adv-x="1228" d="M307 1147h205v204h-205v-204zM512 1351h204v205h-204v-205zM0 205h205v-205h409v-205h205v1229h-205v-819h-409v819h-205v-819zM205 -205v-205h409v205h-409z" />
<glyph unicode="&#x152;" horiz-adv-x="2048" d="M1024 0h819v205h-614v409h409v205h-409v410h614v205h-819v-1434zM0 205h205v-205h409v205h-409v1024h-205v-1024zM205 1229h409v-1024h205v1024h-205v205h-409v-205z" />
<glyph unicode="&#x153;" horiz-adv-x="2048" d="M1024 205h205v-205h409v205h-409v205h614v409h-205v205h-409v-205h409v-205h-409v205h-205v-614zM0 205h205v-205h409v205h-409v614h-205v-614zM205 819h409v-614h205v614h-205v205h-409v-205z" />
<glyph unicode="&#x2c6;" d="M0 1434h205v204h-205v-204zM205 1638h409v-204h205v204h-205v205h-409v-205z" />
<glyph unicode="&#x2000;" horiz-adv-x="983" />
<glyph unicode="&#x2001;" horiz-adv-x="1966" />
<glyph unicode="&#x2002;" horiz-adv-x="983" />
<glyph unicode="&#x2003;" horiz-adv-x="1966" />
<glyph unicode="&#x2004;" horiz-adv-x="655" />
<glyph unicode="&#x2005;" horiz-adv-x="491" />
<glyph unicode="&#x2006;" horiz-adv-x="327" />
<glyph unicode="&#x2007;" horiz-adv-x="327" />
<glyph unicode="&#x2008;" horiz-adv-x="245" />
<glyph unicode="&#x2009;" horiz-adv-x="393" />
<glyph unicode="&#x200a;" horiz-adv-x="108" />
<glyph unicode="&#x2010;" horiz-adv-x="614" d="M0 614h410v205h-410v-205z" />
<glyph unicode="&#x2011;" horiz-adv-x="614" d="M0 614h410v205h-410v-205z" />
<glyph unicode="&#x2012;" horiz-adv-x="614" d="M0 614h410v205h-410v-205z" />
<glyph unicode="&#x2013;" d="M205 512v205h614v-205h-614z" />
<glyph unicode="&#x2014;" horiz-adv-x="2048" d="M205 512v205h1638v-205h-1638z" />
<glyph unicode="&#x2018;" d="M205 1638h205v-204h204v204h-204v205h-205v-205z" />
<glyph unicode="&#x2019;" horiz-adv-x="409" d="M0 1024v410h205v-410h-205z" />
<glyph unicode="&#x201c;" horiz-adv-x="819" d="M0 1024h205v410h-205v-410zM410 1024h204v410h-204v-410z" />
<glyph unicode="&#x201d;" horiz-adv-x="819" d="M0 1024h205v410h-205v-410zM410 1024h204v410h-204v-410z" />
<glyph unicode="&#x2026;" horiz-adv-x="1228" d="M819 0h205v205h-205v-205zM410 0h205v205h-205v-205zM0 0h205v205h-205v-205z" />
<glyph unicode="&#x202f;" horiz-adv-x="393" />
<glyph unicode="&#x2039;" d="M0 614v205h205v205h205v205h204v205h205v-205h-205v-205h-204v-205h-205v-205h-205zM205 410v204h205v-204h-205zM410 205v205h204v-205h-204zM614 0v205h205v-205h-205z" />
<glyph unicode="&#x203a;" d="M0 0h205v205h-205v-205zM0 1229h205v-205h205v-205h204v-205h205v205h-205v205h-204v205h-205v205h-205v-205zM205 205h205v205h-205v-205zM410 410h204v204h-204v-204z" />
<glyph unicode="&#x205f;" horiz-adv-x="491" />
<glyph unicode="&#x2122;" horiz-adv-x="2457" d="M1229 0h205v1024h205v-205h204v205h-204v205h-205v205h-205v-1434zM1843 1024h205v-1024h205v1434h-205v-205h-205v-205zM0 1229h410v-1229h204v1229h410v205h-1024v-205z" />
<glyph unicode="&#xe000;" horiz-adv-x="1025" d="M0 1025h1025v-1025h-1025v1025z" />
<glyph unicode="&#xfb01;" horiz-adv-x="1226" d="M817 0h205v1024h-205v-1024zM817 1229h205v205h-205v-205zM0 819h205v-819h205v819h204v205h-204v205h-205v-205h-205v-205zM410 1229h204v205h-204v-205z" />
<glyph unicode="&#xfb02;" horiz-adv-x="1431" d="M817 205h205v-205h205v205h-205v1229h-205v-1229zM0 819h205v-819h205v819h204v205h-204v205h-205v-205h-205v-205zM410 1229h204v205h-204v-205z" />
<glyph unicode="&#xfb03;" horiz-adv-x="2043" d="M1634 0h205v1024h-205v-1024zM1634 1229h205v205h-205v-205zM817 819h205v-819h205v819h204v205h-204v205h-205v-205h-205v-205zM1227 1229h204v205h-204v-205zM0 819h205v-819h205v819h204v205h-204v205h-205v-205h-205v-205zM410 1229h204v205h-204v-205z" />
<glyph unicode="&#xfb04;" horiz-adv-x="2248" d="M1634 205h205v-205h205v205h-205v1229h-205v-1229zM817 819h205v-819h205v819h204v205h-204v205h-205v-205h-205v-205zM1227 1229h204v205h-204v-205zM0 819h205v-819h205v819h204v205h-204v205h-205v-205h-205v-205zM410 1229h204v205h-204v-205z" />
</font>
</defs>
</svg>
